.
Авторизация | Регистрация
Хочешь лучшие торренты? Добавь свой email!
Добавить
» » Два ствола / 2 Guns (2013) BDRip 720p от GORESEWAGE скачать через торрент бесплатно




    Два ствола / 2 Guns (2013) BDRip 720p от GORESEWAGE скачать через торрент бесплатно

    Опубликовал: Админ | Дата: 27-02-2015, 11:10 | Просмотров: 243



    Русское название: Два ствола
    Русское название в мировом прокате: 2 Guns
    Создали в: 2013
    Снималось в: США
    Категория жанра: боевик, триллер, драма, комедия, криминал
    Время просмотра: 01:49:15
    Перевод текста 1: Профессиональный (дублированный)
    Перевод текста 2: Профессиональный (дублированный) AVO Ю. Сербин (вставки на испанскую речь)
    Перевод текста 3: Любительский (многоголосый закадровый) ТО Рыжий пёс
    Перевод текста 4: Авторский (одноголосый закадровый) Л. Володарский
    Перевод текста 5: Авторский (одноголосый закадровый) Ю. Сербин
    Перевод текста 6: Профессиональный (дублированный) Ukr
    Оригинальная аудиодорожка: Английская
    Субтитры: Русские (Forced, Full BD, Full Voronine, Full Артём Кущак), английские (Full, SDH, SDH Colored)
    Киностудия: Universal Pictures, Emmett/Furla Films, Marc Platt Productions

    Главный режиссёр: Бальтасар Кормакур / Baltasar Korm?kur

    Актеры: Дензел Вашингтон, Марк Уолберг, Пола Пэттон, Билл Пэкстон, Эдвард Джеймс Олмос, Джеймс Марсден, Роберт Джон Бёрк, Фред Уорд, Патрик Фишлер, Лаки Джонсон и др.

    Сюжет: Это история двух грабителей, которые на самом деле не те, кем кажутся. Один из них - агент из управления по борьбе с наркотиками, а другой - тайный агент разведки ВМС. Сами того не желая, они занимаются расследованием дел друг друга, а также воруют деньги у мафии. Через некоторое время героям придётся украсть 50 миллионов долларов у ЦРУ.



    Sample

    Качество фильма: BDRip 720p (DON)
    Контейнер: MKV
    Информация о видео кодек: MPEG-4 AVC Video
    Информация о звуке кодек: DTS / AC3
    Информация о видео: MPEG-4 AVC Video / 9393 kbps / 1280x534p / 23,976 fps / 2.40:1 / High Profile 4.1
    Информация о звуке 1: Russian / AC3 / 5.1 / 48 kHz / 640 kbps / 16-bit / Dub
    Информация о звуке 2: Russian / AC3 / 5.1 / 48 kHz / 640 kbps / 16-bit / Dub AVO Ю. Сербин
    Информация о звуке 3: Russian / AC3 / 5.1 / 48 kHz / 640 kbps / 16-bit / MVO ТО Рыжий пёс
    Информация о звуке 4: Russian / DTS / 5.1 / 48 kHz / 1536 kbps / 24-bit / Л. Володарский
    Информация о звуке 5: Russian / DTS / 5.1 / 48 kHz / 1536 kbps / 24-bit / Ю. Сербин
    Информация о звуке 6: Ukrainian / AC3 / 5.1 / 48 kHz / 640 kbps / 16-bit / Dub
    Информация о звуке 7: English / DTS / 5.1 / 48 kHz / 1536 kbps / 24-bit / Original
    Информация о звуке 8: English / AC3 / 2.0 / 48 kHz / 192 kbps / 16-bit / Commentary w/ director Baltasar Korm?kur and producer Adam Siegel
    Информация о звуке 9: English / AC3 / 2.0 / 48 kHz / 192 kbps / 16-bit / Deive (Technical Commentary)
    Навигация по главам: да

    Дополнительная информация

    * За дорогу № 2 thx Прагматик Daddy_BOSS.
    * MVO ТО Рыжий пёс доступен благодаря пользователям Ru tracker: dikii Crazy172.
    Перевод: Артем Кущак
    Роли озвучивали: Дмитрий Кущак, Артем Кущак, Анастасия Домнина
    * AVO Леонида Володарского доступен благодаря пользователям форума E180.
    * AVO Юрия Сербина доступен благодаря пользователям HDClub: xRym, exact, Brown, Andrew1953, tambov68, kuryha, borisol55, sybir, Ex1l, RAUL, Beonikol, а так же пользователи ресурса E180.
    Внимание! Дорожки № 2, 3 и 5 содержат ненормативную лексику!


    Скриншоты для ознакомления

    MediaInfo
    C:/GORESEWAGE/2 Guns 2013 BDRip 720p GORESEWAGE.mkv
    General
    Unique ID : 215016044283116515127187902466144155061 (0xA1C2957548953E479BB292CF756D35B5)
    Complete name : C:/GORESEWAGE/2 Guns 2013 BDRip 720p GORESEWAGE.mkv
    Format : Matroska
    Format version : Version 4 / Version 2
    File size : 12.9 GiB
    Duration : 1h 49mn
    Overall bit rate : 16.9 Mbps
    Movie name : 2 Guns 2013 BDRip 720p GORESEWAGE
    Encoded date : UTC 2014-02-05 19:34:29
    Writing application : mkvmerge v6.1.0 (;Old Devil;) built on Mar 2 2013 14:32:37
    Writing library : libebml v1.3.0 libmatroska v1.4.0
    Attachment : Yes
    Video #1
    ID : 1
    Format : AVC
    Format/Info : Advanced Video Codec
    Format profile : High@L4.1
    Format settings, CABAC : Yes
    Format settings, ReFrames : 11 frames
    Codec ID : V_MPEG4/ISO/AVC
    Duration : 1h 49mn
    Bit rate : 9 393 Kbps
    Width : 1 280 pixels
    Height : 534 pixels
    Display aspect ratio : 2.40:1
    Frame rate mode : Constant
    Frame rate : 23.976 fps
    Color space : YUV
    Chroma subsampling : 4:2:0
    Bit depth : 8 bits
    Scan type : Progressive
    Bits/(Pixel*Frame) : 0.573
    Stream size : 6.91 GiB (54%)
    Title : 2 Guns 2013 BDRip 720p GORESEWAGE
    Writing library : x264 core 140 r2377kMod 1ca7bb9
    Encoding settings : cabac=1 / ref=11 / deblock=1:-3:-3 / analyse=0x3:0x113 / me=umh / subme=11 / psy=1 / fade_compensate=0.00 / psy_rd=1.00:0.00 / mixed_ref=1 / me_range=32 / chroma_me=1 / trellis=2 / 8x8dct=1 / cqm=0 / deadzone=6,6 / fast_pskip=0 / chroma_qp_offset=-4 / threads=6 / lookahead_threads=1 / sliced_threads=0 / nr=0 / decimate=0 / interlaced=0 / bluray_compat=0 / constrained_intra=0 / fgo=0 / bframes=11 / b_pyramid=2 / b_adapt=2 / b_bias=0 / direct=1 / weightb=1 / open_gop=0 / weightp=2 / keyint=230 / keyint_min=23 / scenecut=40 / intra_refresh=0 / rc_lookahead=60 / rc=2pass / mbtree=0 / bitrate=9393 / ratetol=1.0 / qcomp=0.65 / qpmin=0 / qpmax=69 / qpstep=4 / cplxblur=20.0 / qblur=0.5 / vbv_maxrate=50000 / vbv_bufsize=62500 / nal_hrd=none / filler=0 / ip_ratio=1.10 / pb_ratio=1.10 / aq=3:0.85
    Language : English
    Default : Yes
    Forced : No
    Audio #2
    ID : 2
    Format : AC-3
    Format/Info : Audio Coding 3
    Mode extension : CM (complete main)
    Format settings, Endianness : Big
    Codec ID : A_AC3
    Duration : 1h 49mn
    Bit rate mode : Constant
    Bit rate : 640 Kbps
    Channel count : 6 channels
    Channel positions : Front: L C R, Side: L R, LFE
    Sampling rate : 48.0 KHz
    Bit depth : 16 bits
    Compression mode : Lossy
    Stream size : 500 MiB (4%)
    Title : Dub BD
    Language : Russian
    Default : Yes
    Forced : No
    Audio #3
    ID : 3
    Format : AC-3
    Format/Info : Audio Coding 3
    Mode extension : CM (complete main)
    Format settings, Endianness : Big
    Codec ID : A_AC3
    Duration : 1h 49mn
    Bit rate mode : Constant
    Bit rate : 640 Kbps
    Channel count : 6 channels
    Channel positions : Front: L C R, Side: L R, LFE
    Sampling rate : 48.0 KHz
    Bit depth : 16 bits
    Compression mode : Lossy
    Stream size : 500 MiB (4%)
    Title : Dub AVO Ю. Сербин
    Language : Russian
    Default : No
    Forced : No
    Audio #4
    ID : 4
    Format : AC-3
    Format/Info : Audio Coding 3
    Mode extension : CM (complete main)
    Format settings, Endianness : Big
    Codec ID : A_AC3
    Duration : 1h 49mn
    Bit rate mode : Constant
    Bit rate : 640 Kbps
    Channel count : 6 channels
    Channel positions : Front: L C R, Side: L R, LFE
    Sampling rate : 48.0 KHz
    Bit depth : 16 bits
    Compression mode : Lossy
    Stream size : 500 MiB (4%)
    Title : MVO ТО Рыжий пёс
    Language : Russian
    Default : No
    Forced : No
    Audio #5
    ID : 5
    Format : DTS
    Format/Info : Digital Theater Systems
    Mode : 16
    Format settings, Endianness : Big
    Codec ID : A_DTS
    Duration : 1h 49mn
    Bit rate mode : Constant
    Bit rate : 1 509 Kbps
    Channel count : 6 channels
    Channel positions : Front: L C R, Side: L R, LFE
    Sampling rate : 48.0 KHz
    Bit depth : 24 bits
    Compression mode : Lossy
    Stream size : 1.15 GiB (9%)
    Title : AVO Л. Володарский
    Language : Russian
    Default : No
    Forced : No
    Audio #6
    ID : 6
    Format : DTS
    Format/Info : Digital Theater Systems
    Mode : 16
    Format settings, Endianness : Big
    Codec ID : A_DTS
    Duration : 1h 49mn
    Bit rate mode : Constant
    Bit rate : 1 509 Kbps
    Channel count : 6 channels
    Channel positions : Front: L C R, Side: L R, LFE
    Sampling rate : 48.0 KHz
    Bit depth : 24 bits
    Compression mode : Lossy
    Stream size : 1.15 GiB (9%)
    Title : AVO Ю. Сербин
    Language : Russian
    Default : No
    Forced : No
    Audio #7
    ID : 7
    Format : AC-3
    Format/Info : Audio Coding 3
    Mode extension : CM (complete main)
    Format settings, Endianness : Big
    Codec ID : A_AC3
    Duration : 1h 49mn
    Bit rate mode : Constant
    Bit rate : 640 Kbps
    Channel count : 6 channels
    Channel positions : Front: L C R, Side: L R, LFE
    Sampling rate : 48.0 KHz
    Bit depth : 16 bits
    Compression mode : Lossy
    Stream size : 500 MiB (4%)
    Title : Dub BD
    Language : Ukrainian
    Default : No
    Forced : No
    Audio #8
    ID : 8
    Format : DTS
    Format/Info : Digital Theater Systems
    Mode : 16
    Format settings, Endianness : Big
    Codec ID : A_DTS
    Duration : 1h 49mn
    Bit rate mode : Constant
    Bit rate : 1 509 Kbps
    Channel count : 6 channels
    Channel positions : Front: L C R, Side: L R, LFE
    Sampling rate : 48.0 KHz
    Bit depth : 24 bits
    Compression mode : Lossy
    Stream size : 1.15 GiB (9%)
    Title : Original
    Language : English
    Default : No
    Forced : No
    Audio #9
    ID : 9
    Format : AC-3
    Format/Info : Audio Coding 3
    Format profile : Dolby Digital
    Mode extension : CM (complete main)
    Format settings, Endianness : Big
    Codec ID : A_AC3
    Duration : 1h 49mn
    Bit rate mode : Constant
    Bit rate : 192 Kbps
    Channel count : 2 channels
    Channel positions : Front: L R
    Sampling rate : 48.0 KHz
    Bit depth : 16 bits
    Compression mode : Lossy
    Stream size : 150 MiB (1%)
    Title : Commentary w/ director Baltasar Korm?kur and producer Adam Siegel
    Language : English
    Default : No
    Forced : No
    Audio #10
    ID : 10
    Format : AC-3
    Format/Info : Audio Coding 3
    Format profile : Dolby Digital
    Mode extension : CM (complete main)
    Format settings, Endianness : Big
    Codec ID : A_AC3
    Duration : 1h 49mn
    Bit rate mode : Constant
    Bit rate : 192 Kbps
    Channel count : 2 channels
    Channel positions : Front: L R
    Sampling rate : 48.0 KHz
    Bit depth : 16 bits
    Compression mode : Lossy
    Stream size : 150 MiB (1%)
    Title : Deive (Technical Commentary)
    Language : English
    Default : No
    Forced : No
    Text #11
    ID : 11
    Format : UTF-8
    Codec ID : S_TEXT/UTF8
    Codec ID/Info : UTF-8 Plain Text
    Title : Forced
    Language : Russian
    Default : Yes
    Forced : No
    Text #12
    ID : 12
    Format : UTF-8
    Codec ID : S_TEXT/UTF8
    Codec ID/Info : UTF-8 Plain Text
    Title : Full BD
    Language : Russian
    Default : No
    Forced : No
    Text #13
    ID : 13
    Format : UTF-8
    Codec ID : S_TEXT/UTF8
    Codec ID/Info : UTF-8 Plain Text
    Title : Full Voronine
    Language : Russian
    Default : No
    Forced : No
    Text #14
    ID : 14
    Format : UTF-8
    Codec ID : S_TEXT/UTF8
    Codec ID/Info : UTF-8 Plain Text
    Title : Full Артём Кущак
    Language : Russian
    Default : No
    Forced : No
    Text #15
    ID : 15
    Format : UTF-8
    Codec ID : S_TEXT/UTF8
    Codec ID/Info : UTF-8 Plain Text
    Title : Full
    Language : English
    Default : No
    Forced : No
    Text #16
    ID : 16
    Format : UTF-8
    Codec ID : S_TEXT/UTF8
    Codec ID/Info : UTF-8 Plain Text
    Title : SDH
    Language : English
    Default : No
    Forced : No
    Text #17
    ID : 17
    Format : UTF-8
    Codec ID : S_TEXT/UTF8
    Codec ID/Info : UTF-8 Plain Text
    Title : SDH Colored
    Language : English
    Default : No
    Forced : No
    Menu
    00:00:00.000 : en:Chapter 01
    00:05:36.044 : en:Chapter 02
    00:10:44.185 : en:Chapter 03
    00:15:15.205 : en:Chapter 04
    00:20:42.282 : en:Chapter 05
    00:24:47.736 : en:Chapter 06
    00:29:20.842 : en:Chapter 07
    00:36:24.098 : en:Chapter 08
    00:40:56.370 : en:Chapter 09
    00:45:39.278 : en:Chapter 10
    00:52:17.050 : en:Chapter 11
    00:58:13.781 : en:Chapter 12
    01:05:49.987 : en:Chapter 13
    01:10:28.682 : en:Chapter 14
    01:14:35.387 : en:Chapter 15
    01:20:14.559 : en:Chapter 16
    01:24:46.915 : en:Chapter 17
    01:31:11.924 : en:Chapter 18
    01:38:23.647 : en:Chapter 19
    01:41:02.639 : en:Chapter 20

    Размер скачиваемого торрента: 12.87 GB (13819861736 Bytes)

    Два ствола / 2 Guns (2013) BDRip 720p от GORESEWAGE скачать через торрент бесплатно
    загрузка...
    Рейтинг →
     (голосов: 1, оценка 4/5, голосовать можно 1 раз )

    Другие торренты по теме:

  • OST - Карты, деньги, два ствола / Lock, Stock and Two Smoking Barrels (1998) MP3
  • Карты, деньги, два ствола / Lock, Stock and Two Smoking Barrels (1998) BDRip 1080p от NoLimits-Team
  • Карты, деньги, два ствола / Lock, Stock and Two Smoking Barrels (1998) BDRip-AVC от FireBit-Films NoLimits-Team
  • Два ствола / 2 Guns (2013) CAMRip | D
  • Два ствола / 2 Guns (2013) CAMRip *PROPER* от INTERCINEMA
  • Два ствола / 2 Guns (2013) WEBRip | Звук с TS
  • Два ствола / 2 Guns (2013) WEB-DL 720p | Звук с TS
  • Два ствола / 2 Guns (2013) WEB-DLRip | Звук с TS


    • Комментарии (0):

      Информация

      Информация

        Посетители, находящиеся в группе Гости, не могут оставлять комментарии в данной новости.

        ↓ Меню



        ↓ Опрос

        А Вы добавили сайт в закладки?
        Да
        Не


        Top 10 за месяц (Фильмы)