.
Авторизация | Регистрация
» » Гравитация / Gravity (2013) BDRip 1080p | 3D-Video | HSBS | iTunes торрент скачать бесплатно




    Гравитация / Gravity (2013) BDRip 1080p | 3D-Video | HSBS | iTunes торрент скачать бесплатно

    Опубликовал: Админ | Дата: 27-02-2015, 11:10 | Просмотров: 284



    Наименование: Гравитация
    Оригинальное наименование: Gravity
    Категория: Фантастика, Триллер, Драма
    Создали в: 2013
    Произведено: США / Heyday Films, Reality Media, Warner Bros. Pictures
    Время просмотра: 01:30:58
    Перевод текста: Дублированный (Цифровая лицензия iTunes)

    Главный режиссер: Альфонсо Куарон

    В главных ролях: Сандра Буллок, Джордж Клуни, Эд Харрис, Орто Игнатиуссен, Фалдут Шарма, Эми Уоррен, Башер Саваж, Дженис Ахерн

    Сюжет:
    Доктор Райан Стоун, блестящий специалист в области медицинского инжиниринга, отправляется в свою первую космическую миссию под командованием ветерана астронавтики Мэтта Ковальски, для которого этот полет — последний перед отставкой. Но во время, казалось бы, рутинной работы за бортом случается катастрофа.
    Шаттл уничтожен, а Стоун и Ковальски остаются совершенно одни; они находятся в связке друг с другом, и все, что они могут, — это двигаться по орбите в абсолютно черном пространстве без всякой связи с Землей и какой-либо надежды на спасение.




    Качество фильма: BDRip (1080p)
    Информация о видео: MPEG-4 AVC, 12.1 Мбит/с, 1920x1080, 23.976 кадр/с
    Информация о звуке: Русский (AC3, 6 ch, 384 Кбит/с), английский (DTS, 6 ch, 1510 Кбит/с)

    MediaInfo
    Format : Matroska
    File size : 9.08 GiB
    Duration : 1h 30mn
    Overall bit rate : 14.3 Mbps
    Movie name : -
    Encoded date : UTC 2014-02-07 15:08:06
    Writing application : mkvmerge v4.0.0 (;The Stars were mine;) сборка от Jun 6 2010 16:18:42
    Writing library : libebml v1.0.0 libmatroska v1.0.0


    Video
    ID : 1
    Format : AVC
    Format/Info : Advanced Video Codec
    Format profile : High@L4.1
    Format settings, CABAC : Yes
    Format settings, ReFrames : 2 frames
    Muxing mode : Container profile=Unknown@4.1
    Codec ID : V_MPEG4/ISO/AVC
    Duration : 1h 30mn
    Bit rate : 12.1 Mbps
    Width : 1 920 pixels
    Height : 1 080 pixels
    Display aspect ratio : 16:9
    Frame rate : 23.976 fps
    Color space : YUV
    Chroma subsampling : 4:2:0
    Bit depth : 8 bits
    Scan type : Progressive
    Bits/(Pixel*Frame) : 0.244
    Stream size : 7.70 GiB (85%)
    Writing library : x264 core
    Color primaries : BT.709-5, BT.1361, IEC 61966-2-4, SMPTE RP177
    Transfer characteristics : BT.709-5, BT.1361
    Matrix coefficients : BT.709-5, BT.1361, IEC 61966-2-4 709, SMPTE RP177


    Audio #1
    ID : 2
    Format : AC-3
    Format/Info : Audio Coding 3
    Mode extension : CM (complete main)
    Codec ID : A_AC3
    Duration : 1h 30mn
    Bit rate mode : Constant
    Bit rate : 384 Kbps
    Channel(s) : 6 channels
    Channel positions : Front: L C R, Side: L R, LFE
    Sampling rate : 48.0 KHz
    Stream size : 250 MiB (3%)
    Language : Russian


    Audio #2
    ID : 3
    Format : DTS
    Format/Info : Digital Theater Systems
    Codec ID : A_DTS
    Duration : 1h 30mn
    Bit rate mode : Constant
    Bit rate : 1 510 Kbps
    Channel(s) : 6 channels
    Channel positions : Front: L C R, Side: L R, LFE
    Sampling rate : 48.0 KHz
    Bit depth : 16 bits
    Video delay : 11ms
    Stream size : 982 MiB (11%)


    Menu
    00:00:00.000 : en:00:00:00.000
    00:13:08.830 : en:00:13:08.830
    00:21:33.542 : en:00:21:33.542
    00:29:12.668 : en:00:29:12.668
    00:39:59.856 : en:00:39:59.856
    00:48:49.051 : en:00:48:49.051
    00:57:00.667 : en:00:57:00.667
    01:08:08.418 : en:01:08:08.418
    01:15:27.148 : en:01:15:27.148
    01:23:50.567 : en:01:23:50.567
    Формат 3D
    Anamorph SideBySide / Горизонтальная анаморфная стереопара Порядок ракурсов: левый ракурс первый Просмотр рекомендован на специализированнном оборудовании: 3D blu-ray плеер (ps3) 3D телевизор 3D очки или с комплектом NVIDIA® 3D Vision™, способным обеспечить работу с 3D на ПК.
    Скриншоты для ознакомления

    Размер скачиваемого торрента: 9.08 GB (9753054688 Bytes)

    Гравитация / Gravity (2013) BDRip 1080p | 3D-Video | HSBS | iTunes торрент скачать бесплатно
    загрузка...
    Рейтинг →
     (голосов: 1, оценка 3/5, голосовать можно 1 раз )

    Другие торренты по теме:

  • Гравитация / Притяжение / Gravity (2012) WEB-DLRip, HDTVRip | L2 торрент скачать бесплатно
  • OST - Гравитация / Gravity (2013) MP3 скачать через торрент бесплатно
  • Гравитация / Gravity (2013) CAMRip от INTERCINEMA скачать через торрент бесплатно
  • Гравитация / Gravity (2013) CAMRip *PROPER* от INTERCINEMA торрент скачать бесплатно
  • Гравитация / Gravity (2013) DVDScr | Звук с TS торрент скачать бесплатно
  • Гравитация / Gravity (2013) DVDScr | Чистый звук скачать через торрент бесплатно
  • Гравитация / Gravity (2013) WEBRip | Чистый звук скачать через торрент бесплатно
  • Гравитация / Gravity (2013) WEB-DLRip от New-Team | Чистый звук торрент скачать бесплатно


    • Комментарии (0):

      Информация

      Информация

        Посетители, находящиеся в группе Гости, не могут оставлять комментарии в данной новости.

        ↓ Меню



        ↓ Опрос

        А Вы добавили сайт в закладки?
        Да
        Не


        Top 10 за неделю (Фильмы)