.
Авторизация | Регистрация
» » Откройте, полиция! / Продажные / Les ripoux (1984) HDRip-AVC | iPhone торрент скачать бесплатно




    Откройте, полиция! / Продажные / Les ripoux (1984) HDRip-AVC | iPhone торрент скачать бесплатно

    Опубликовал: Админ | Дата: 27-02-2015, 11:10 | Просмотров: 262



    Русское название: Откройте, полиция! (Продажные)
    Русское название в мировом прокате: Les ripoux
    Создали в: 1984
    Категория жанра: комедия, криминал
    Главный режиссер: Клод Зиди
    Актеры: Филипп Нуаре, Тьерри Лермитт, Режин, Грейс Де Капитани, Клод Броссе, Альбер Симоно, Жюльен Гиомар, Анри Атталь, Абу Бакар, Пьер Батон

    Сюжет фильма:
    Опытный полицейский-пройдоха Рене обучает хитростям мошенничества своего юного напарника-идеалиста Франсуа. Напарник так входит в раж, что затмевает своего насквозь коррумпированного наставника.



    Снималось в: Франция
    Киностудия: © Films 7
    Время просмотра: 01:46:39
    Перевод текста: Русский профессиональный (дубляж), Русский многоголосый закадровый

    Файл
    Кодек для видео: H.264
    Качество фильма: HDRip-AVC 480p iPhone
    Информация о видео: 802x480 at 24.00 fps, AVC at 1800 kbps
    Информация о звуке:
    1: 48 kHz, AAC 2.0, 170 kbps - Русский профессиональный (дубляж)
    2: 48 kHz, AAC 2.0, 192 kbps - Русский профессиональный (CP Digital)
    3: 48 kHz, AAC 2.0, 142 kbps - Французский
    Субтитры: Русские

    iTunes Meta Tags

    Sort Name: Les ripoux
    XID: Apple:vendor_id:1984-55071
    contentID: 55071
    Copyright: © Films 7
    Screenwriters: Дидье Каминка, Клод Зиди
    Director: Claude Zidi
    Cast: Филипп Нуаре, Тьерри Лермитт, Режин, Грейс Де Капитани, Клод Броссе, Альбер Симоно, Жюльен Гиомар, Анри Атталь, Абу Бакар, Пьер Батон
    Rating: 5
    Long Deion: Опытный полицейский-пройдоха Рене обучает хитростям мошенничества своего юного напарника-идеалиста Франсуа. Напарник так входит в раж, что затмевает своего насквозь коррумпированного наставника.
    Deion: Опытный полицейский-пройдоха Рене обучает хитростям мошенничества своего юного напарника-идеалиста Франсуа. Напарник так входит в раж, что затмевает своего насквозь коррумпированного наставника.
    Release Date: 1984-09-19T08:00:00Z
    Genre: Comedy
    Artist: Клод Зиди
    Name: Откройте, полиция! (Продажные)
    Media Info

    General
    Complete name : C:CREATE480outLes Ripoux.1984 (SD).m4v
    Format : MPEG-4
    Codec ID : M4V
    File size : 1.61 GiB
    Duration : 1h 46mn
    Overall bit rate mode : Variable
    Overall bit rate : 2 156 Kbps
    Movie name : Откройте, полиция! (Продажные)
    Performer : Клод Зиди
    Genre : Comedy
    Recorded date : UTC 1984-09-19 08:00:00
    Encoded date : UTC 2014-02-06 08:34:00
    Tagged date : UTC 2014-02-06 09:05:26
    Copyright : © Films 7
    Cover : Yes
    sonm : Les Ripoux
    desc : Опытный полицейский-пройдоха Рене обучает хитростям мошенничества своего юного напарника-идеалиста Франсуа. Напарник так входит в раж, что затмевает своего насквозь коррумпированного наставника.
    ldes : Опытный полицейский-пройдоха Рене обучает хитростям мошенничества своего юного напарника-идеалиста Франсуа. Напарник так входит в раж, что затмевает своего насквозь коррумпированного наставника.
    stik : 9
    rtng : 0
    cnID : 55071
    xid : Apple:vendor_id:1984-55071
    iTunEXTC : mpaa|R|400|


    Video #1
    ID : 1
    Format : AVC
    Format/Info : Advanced Video Codec
    Format profile : Baseline@L3.0
    Format settings, CABAC : No
    Format settings, ReFrames : 2 frames
    Codec ID : avc1
    Codec ID/Info : Advanced Video Coding
    Duration : 1h 46mn
    Bit rate : 1 800 Kbps
    Maximum bit rate : 4 743 Kbps
    Width : 802 pixels
    Height : 480 pixels
    Display aspect ratio : 1.671
    Frame rate mode : Constant
    Frame rate : 24.000 fps
    Color space : YUV
    Chroma subsampling : 4:2:0
    Bit depth : 8 bits
    Scan type : Progressive
    Bits/(Pixel*Frame) : 0.195
    Stream size : 1.34 GiB (83%)
    Title : Les Ripoux.198
    Writing library : x264 core 140 r2377 40 929f149 tMod 8-bit@4:2:0 X86_64
    Encoding settings : cabac=0 / ref=2 / deblock=1:-2:-2 / analyse=0x1:0x131 / me=umh / subme=7 / psy=1 / fade_compensate=0.10 / psy_rd=1.00:0.00 / mixed_ref=1 / me_range=32 / chroma_me=1 / trellis=2 / 8x8dct=0 / cqm=0 / deadzone=21,11 / fast_pskip=0 / chroma_qp_offset=-2 / threads=12 / lookahead_threads=2 / sliced_threads=0 / nr=0 / decimate=1 / interlaced=0 / bluray_compat=0 / constrained_intra=0 / fgo=0 / bframes=0 / weightp=0 / keyint=250 / keyint_min=24 / scenecut=40 / intra_refresh=0 / rc_lookahead=120 / rc=2pass / mbtree=1 / bitrate=1800 / ratetol=1.0 / qcomp=0.60 / qpmin=0:0:0 / qpmax=69:69:69 / qpstep=4 / cplxblur=20.0 / qblur=0.5 / vbv_maxrate=5000 / vbv_bufsize=5000 / nal_hrd=none / filler=0 / ip_ratio=1.40 / aq=1:1.00 / aq-sensitivity=10.00 / aq-factor=1.00:1.00:1.00 / aq2=0 / aq3=0
    Language : French
    Encoded date : UTC 2014-02-06 08:34:00
    Tagged date : UTC 2014-02-06 08:35:03
    Matrix coefficients : BT.709

    Video #2
    ID : 10
    Format : JPEG
    Codec ID : jpeg
    Duration : 1h 46mn
    Bit rate mode : Variable
    Bit rate : 904 bps
    Width : 640 pixels
    Height : 383 pixels
    Display aspect ratio : 1.671
    Frame rate mode : Variable
    Frame rate : 0.002 fps
    Minimum frame rate : 0.002 fps
    Maximum frame rate : 0.003 fps
    Color space : YUV
    Chroma subsampling : 4:2:0
    Bit depth : 8 bits
    Compression mode : Lossy
    Bits/(Pixel*Frame) : 1.844
    Stream size : 662 KiB (0%)
    Language : French
    Encoded date : UTC 2014-02-06 09:05:21
    Tagged date : UTC 2014-02-06 09:05:21

    Audio #1
    ID : 2
    Format : AAC
    Format/Info : Advanced Audio Codec
    Format profile : LC
    Codec ID : 40
    Duration : 1h 46mn
    Bit rate mode : Variable
    Bit rate : 110 Kbps
    Maximum bit rate : 171 Kbps
    Channel(s) : 2 channels
    Channel positions : Front: L R
    Sampling rate : 48.0 KHz
    Compression mode : Lossy
    Stream size : 84.0 MiB (5%)
    Title : AAC DUB _ MVO
    Language : Russian
    Encoded date : UTC 2014-02-06 08:19:30
    Tagged date : UTC 2014-02-06 08:35:03

    Audio #2
    ID : 4
    Format : AAC
    Format/Info : Advanced Audio Codec
    Format profile : LC
    Codec ID : 40
    Duration : 1h 46mn
    Bit rate mode : Variable
    Bit rate : 132 Kbps
    Maximum bit rate : 209 Kbps
    Channel(s) : 2 channels
    Channel positions : Front: L R
    Sampling rate : 48.0 KHz
    Compression mode : Lossy
    Stream size : 101 MiB (6%)
    Title : AAC CP_Digital
    Language : Russian
    Encoded date : UTC 2014-02-06 08:25:58
    Tagged date : UTC 2014-02-06 08:35:03

    Audio #3
    ID : 6
    Format : AAC
    Format/Info : Advanced Audio Codec
    Format profile : LC
    Codec ID : 40
    Duration : 1h 46mn
    Bit rate mode : Variable
    Bit rate : 106 Kbps
    Maximum bit rate : 142 Kbps
    Channel(s) : 2 channels
    Channel positions : Front: L R
    Sampling rate : 48.0 KHz
    Compression mode : Lossy
    Stream size : 80.9 MiB (5%)
    Title : AAC Original
    Language : French
    Encoded date : UTC 2014-02-06 08:31:52
    Tagged date : UTC 2014-02-06 08:35:03

    Text
    ID : 8
    Format : Timed Text
    Muxing mode : sbtl
    Codec ID : tx3g
    Duration : 1h 43mn
    Bit rate mode : Variable
    Bit rate : 104 bps
    Stream size : 78.9 KiB (0%)
    Title : Subtitle Russian
    Language : Russian
    Encoded date : UTC 2014-02-06 08:35:03
    Tagged date : UTC 2014-02-06 08:35:03

    Menu
    ID : 9
    Codec ID : text
    Duration : 1h 46mn
    Language : French
    Encoded date : UTC 2014-02-06 08:37:00
    Tagged date : UTC 2014-02-06 08:37:00
    Bit rate mode : CBR
    x264

    x264 info: frame I:1804 Avg QP:19.61 size: 32088
    x264 info: frame P:151768 Avg QP:21.77 size: 9104
    x264 info: mb I I16..4: 20.9% 0.0% 79.1%
    x264 info: mb P I16..4: 1.0% 0.0% 2.0% P16..4: 55.8% 21.8% 8.8% 0.7% 0.2% skip: 9.7%
    x264 info: coded y,uvDC,uvAC intra: 68.6% 61.7% 15.9% inter: 29.9% 30.4% 0.3%
    x264 info: i16 v,h,dc,p: 28% 24% 12% 36%
    x264 info: i4 v,h,dc,ddl,ddr,vr,hd,vl,hu: 20% 24% 18% 6% 8% 8% 7% 6% 5%
    x264 info: i8c dc,h,v,p: 58% 18% 19% 5%
    x264 info: ref P L0: 76.5% 23.5%
    x264 info: kb/s:1799.76
    Скриншоты для ознакомления



    Залил: gekka
    Размер скачиваемого торрента: 1.61 GB (1724541475 Bytes)

    Откройте, полиция! / Продажные / Les ripoux (1984) HDRip-AVC | iPhone торрент скачать бесплатно
    загрузка...
    Рейтинг →
     (голосов: 1, оценка 3/5, голосовать можно 1 раз )

    Другие торренты по теме:

  • Откройте, полиция! / Продажные / Les Ripoux (1984-2004) DVDRip-AVC | Трилогия | D | P скачать через торрент бесплатно
  • Откройте, полиция! / Продажные / Les Ripoux (1984) BDRip 1080p от MediaClub | D, P скачать через торрент бесплатно
  • Откройте, полиция! / Les Ripoux (1984) BDRip 720p от denis 100 | D, P скачать через торрент бесплатно
  • Откройте, полиция / Les Ripoux (1984) BDRip от PEERATES | D торрент скачать бесплатно
  • Откройте, полиция! 2 / Ripoux Contre Ripoux (1990) HDTVRip | P торрент скачать бесплатно
  • Откройте, полиция! 3 / Ripoux 3 (2003) HDTVRip от PEERATES | D торрент скачать бесплатно
  • Откройте, полиция! / Продажные / My New Partner / Les ripoux (1984) BDRip от HQCLUB скачать через торрент бесплатно
  • Откройте, полиция! 2 / Продажные против продажных / Ripoux contre ripoux (1990) BDRip 720p от HDClub торрент скачать бесплатно


    • Комментарии (0):

      Информация

      Информация

        Посетители, находящиеся в группе Гости, не могут оставлять комментарии в данной новости.

        ↓ Меню



        ↓ Опрос

        А Вы добавили сайт в закладки?
        Да
        Не


        Top 10 за неделю (Фильмы)