.
Авторизация | Регистрация
» » Довольно слов / Enough Said (2013) BDRemux 1080p от GORESEWAGE | iTunes Russia торрент скачать бесплатно




    Довольно слов / Enough Said (2013) BDRemux 1080p от GORESEWAGE | iTunes Russia торрент скачать бесплатно

    Опубликовал: Админ | Дата: 27-02-2015, 11:10 | Просмотров: 360



    Русское название: Довольно слов
    Русское название в мировом прокате: Enough Said
    Создали в: 2013
    Снималось в: США
    Категория жанра: драма, мелодрама, комедия
    Время просмотра: 01:32:59
    Перевод текста: Профессиональный (многоголосый закадровый) iTunes Russia
    Оригинальная аудиодорожка: English
    Субтитры: Russian (Full), Ukrainian (Full) English (Full, SDH, SDH Colored)
    Киностудия: Fox Searchlight Pictures, Likely Story

    Главный режиссёр: Николь Холофсенер / Nicole Holofcener

    Актеры: Джулия Луис-Дрейфус, Джеймс Гандольфини, Кэтрин Кинер, Тони Коллетт, Бен Фэлкуон, Ленни Лофтин, Джессика Ст. Клэр, Кристофер Николас Смит, Трэйси Фэирэуэй, Михаэлла Уоткинс и др.

    Сюжет: Ева развелась и столкнулась со сложным моментом в жизни - что делать дальше? Она знакомится с другим обаятельным мужчиной, который оказывается бывшим мужем женщины, которая всегда была для неё идеалом.



    Sample

    Качество фильма: BDRemux 1080p (Enough Said 2013 BluRay 1080p AVC DTS-HD MA5.1-CHDBits)
    Контейнер: MKV
    Информация о видео кодек: MPEG-4 AVC Video
    Информация о звуке кодек: DTS-HD MA / AC3
    Информация о видео: MPEG-4 AVC Video / 33101 kbps / 1920x1080p / 23,976 fps / 16:9 / High Profile 4.1
    Информация о звуке 1: Russian / AC3 / 5.1 / 48 kHz / 384 kbps / 16-bit / Dub iTunes Russia
    Информация о звуке 2: English / DTS-HD MA / 5.1 / 48 kHz / 3034 kbps / 24-bit (DTS Core: 5.1 / 48 kHz / 1536 kbps / 24-bit) / Original
    Информация о звуке 3: English / AC3 / 5.1 / 48 kHz / 448 kbps / 16-bit / Commentary
    Навигация по главам: да

    Скриншоты для ознакомления

    MediaInfo
    C:/GORESEWAGE/Enough Said 2013 BDRemux 1080p GORESEWAGE.mkv
    General
    Unique ID : 231739152578520504775789013250574276034 (0xAE57565ADA142248B8EFBF63DE4A55C2)
    Complete name : C:/GORESEWAGE/Enough Said 2013 BDRemux 1080p GORESEWAGE.mkv
    Format : Matroska
    Format version : Version 4 / Version 2
    File size : 23.9 GiB
    Duration : 1h 32mn
    Overall bit rate mode : Variable
    Overall bit rate : 36.9 Mbps
    Movie name : Enough Said 2013 BDRemux 1080p GORESEWAGE
    Encoded date : UTC 2014-02-06 23:13:03
    Writing application : mkvmerge v6.1.0 (;Old Devil;) built on Mar 2 2013 14:32:37
    Writing library : libebml v1.3.0 libmatroska v1.4.0
    Attachment : Yes
    Video #1
    ID : 1
    Format : AVC
    Format/Info : Advanced Video Codec
    Format profile : High@L4.1
    Format settings, CABAC : Yes
    Format settings, ReFrames : 4 frames
    Codec ID : V_MPEG4/ISO/AVC
    Duration : 1h 32mn
    Bit rate mode : Variable
    Maximum bit rate : 35.0 Mbps
    Width : 1 920 pixels
    Height : 1 080 pixels
    Display aspect ratio : 16:9
    Frame rate mode : Constant
    Frame rate : 23.976 fps
    Color space : YUV
    Chroma subsampling : 4:2:0
    Bit depth : 8 bits
    Scan type : Progressive
    Title : Enough Said 2013 BDRemux 1080p GORESEWAGE
    Language : English
    Default : Yes
    Forced : No
    Audio #2
    ID : 2
    Format : AC-3
    Format/Info : Audio Coding 3
    Mode extension : CM (complete main)
    Format settings, Endianness : Big
    Codec ID : A_AC3
    Duration : 1h 32mn
    Bit rate mode : Constant
    Bit rate : 384 Kbps
    Channel count : 6 channels
    Channel positions : Front: L C R, Side: L R, LFE
    Sampling rate : 48.0 KHz
    Bit depth : 16 bits
    Compression mode : Lossy
    Stream size : 255 MiB (1%)
    Title : Dub iTunes Russia
    Language : Russian
    Default : Yes
    Forced : No
    Audio #3
    ID : 3
    Format : DTS
    Format/Info : Digital Theater Systems
    Format profile : MA / Core
    Mode : 16
    Format settings, Endianness : Big
    Codec ID : A_DTS
    Duration : 1h 32mn
    Bit rate mode : Variable
    Bit rate : Unknown / 1 509 Kbps
    Channel count : 6 channels
    Channel positions : Front: L C R, Side: L R, LFE
    Sampling rate : 48.0 KHz
    Bit depth : 24 bits
    Compression mode : Lossless / Lossy
    Title : Original
    Language : English
    Default : No
    Forced : No
    Audio #4
    ID : 4
    Format : AC-3
    Format/Info : Audio Coding 3
    Mode extension : CM (complete main)
    Format settings, Endianness : Big
    Codec ID : A_AC3
    Duration : 1h 32mn
    Bit rate mode : Constant
    Bit rate : 448 Kbps
    Channel count : 6 channels
    Channel positions : Front: L C R, Side: L R, LFE
    Sampling rate : 48.0 KHz
    Bit depth : 16 bits
    Compression mode : Lossy
    Stream size : 298 MiB (1%)
    Title : Commentary
    Language : English
    Default : No
    Forced : No
    Text #5
    ID : 5
    Format : UTF-8
    Codec ID : S_TEXT/UTF8
    Codec ID/Info : UTF-8 Plain Text
    Title : Full
    Language : Russian
    Default : No
    Forced : No
    Text #6
    ID : 6
    Format : UTF-8
    Codec ID : S_TEXT/UTF8
    Codec ID/Info : UTF-8 Plain Text
    Title : Full
    Language : Ukrainian
    Default : No
    Forced : No
    Text #7
    ID : 7
    Format : UTF-8
    Codec ID : S_TEXT/UTF8
    Codec ID/Info : UTF-8 Plain Text
    Title : Full
    Language : English
    Default : No
    Forced : No
    Text #8
    ID : 8
    Format : UTF-8
    Codec ID : S_TEXT/UTF8
    Codec ID/Info : UTF-8 Plain Text
    Title : SDH
    Language : English
    Default : No
    Forced : No
    Text #9
    ID : 9
    Format : UTF-8
    Codec ID : S_TEXT/UTF8
    Codec ID/Info : UTF-8 Plain Text
    Title : SDH Colored
    Language : English
    Default : No
    Forced : No
    Menu
    00:00:00.000 : :Chapter 01
    00:02:45.999 : :Chapter 02
    00:07:17.145 : :Chapter 03
    00:11:07.458 : :Chapter 04
    00:16:07.133 : :Chapter 05
    00:18:04.208 : :Chapter 06
    00:20:06.664 : :Chapter 07
    00:26:21.413 : :Chapter 08
    00:28:43.472 : :Chapter 09
    00:30:44.468 : :Chapter 10
    00:32:58.435 : :Chapter 11
    00:35:34.174 : :Chapter 12
    00:41:21.479 : :Chapter 13
    00:44:06.477 : :Chapter 14
    00:47:11.287 : :Chapter 15
    00:49:23.002 : :Chapter 16
    00:54:15.836 : :Chapter 17
    00:57:41.375 : :Chapter 18
    00:59:11.840 : :Chapter 19
    01:02:03.970 : :Chapter 20
    01:08:48.499 : :Chapter 21
    01:11:40.213 : :Chapter 22
    01:14:36.138 : :Chapter 23
    01:16:12.443 : :Chapter 24
    01:20:19.940 : :Chapter 25
    01:23:41.016 : :Chapter 26
    01:26:50.914 : :Chapter 27
    01:30:26.212 : :Chapter 28

    Размер скачиваемого торрента: 23.94 GB (25701341229 Bytes)

    Довольно слов / Enough Said (2013) BDRemux 1080p от GORESEWAGE | iTunes Russia торрент скачать бесплатно
    загрузка...
    Рейтинг →
     (голосов: 1, оценка 5/5, голосовать можно 1 раз )

    Другие торренты по теме:

  • Довольно слов / Enough Said (2013) BDRip 720p от Hot-Film | iTunes торрент скачать бесплатно
  • Довольно слов / Enough Said (2013) HDRip | iTunes торрент скачать бесплатно
  • Довольно слов / Enough Said (2013) BDRip-AVC от HELLYWOOD | iTunes скачать через торрент бесплатно
  • Довольно слов / Enough Said (2013) Blu-Ray Remux 1080p от NovaLan торрент скачать бесплатно
  • Довольно слов / Enough Said (2013) BDRemux 1080p от ExKinoRay | P | Лицензия торрент скачать бесплатно
  • Довольно слов / Enough Said (2013) BDRip 720p | Лицензия торрент скачать бесплатно
  • Довольно слов / Enough Said (2013) BDRip 1080p | Лицензия торрент скачать бесплатно
  • Довольно слов / Enough Said (2013) HDRip | Лицензия торрент скачать бесплатно


    • Комментарии (0):

      Информация

      Информация

        Посетители, находящиеся в группе Гости, не могут оставлять комментарии в данной новости.

        ↓ Меню



        ↓ Опрос

        А Вы добавили сайт в закладки?
        Да
        Не


        Top 10 за неделю (Фильмы)