.
Авторизация | Регистрация
» » Перси Джексон и Море чудовищ / Percy Jackson: Sea of Monsters (2013) DVD5 скачать через торрент бесплатно




    Перси Джексон и Море чудовищ / Percy Jackson: Sea of Monsters (2013) DVD5 скачать через торрент бесплатно

    Опубликовал: Админ | Дата: 27-02-2015, 11:10 | Просмотров: 335


    Где Боги - там и монстры


    Создали в: 2013
    Создали в: США / Fox 2000 Pictures, Second Line Stages, TCF Vancouver Productions, Trireme Productions
    Категория жанра: Фэнтези, приключения, семейный
    Перевод текста: Дублированный лицензия
    Субтитры: Вшитые отключаемые
    Язык субтитров: Русский, английский

    Главный режиссер: Тор Фройденталь
    Актеры: Логан Лерман, Александра Даддарио, Дуглас Смит, Ливэн Рамбин, Брэндон Т. Джексон, Джейк Эйбел, Энтони Хэд, Стэнли Туччи, Коннор Крэш Данн, Палома Квиатковски, Алиша Ньютон

    Сюжет фильма:
    Лагерь полукровок атакует Люк Кастеллан, который раскрывает свои планы по уничтожению горы Олимп. Наставник Перси, Хирон узнает, что Люк отравил волшебное дерево, которое отвечает за барьер, защищающий Лагерь Полукровок, и которое создано из Талии Грейс, дочери Зевса, убитой циклопом. Аннабет Чейз выясняет, что Золотое Руно может восстановить дерево, и директор лагеря, Дионис, посылает Клариссу Ла Ру, дочь Ареса и соперницу Перси, найти его…

    Дата мировой премьеры: 7 августа 2013
    Дата российской премьеры: 22 августа 2013, Двадцатый Век Фокс СНГ
    Дата выхода DVD/Blu-Ray релиза: 12 декабря 2013, Двадцатый Век Фокс СНГ

    Время просмотра: 01:46:01
    Качество фильма видео: DVD5

    Информация о видео: MPEG-2, 720x480@853x480 (NTSC 16:9), ~5233 Кбит/сек
    Информация о звуке 1: AC3 5.1, 448 Кбит/сек Русский - дублированный
    Информация о звуке 2: AC3 5.1, 448 Кбит/сек Английский - оригинал
    DVDInfo:
    Title: Percy Jackson. Sea of Monsters (2013) DVD5 BD - DVD
    Size: 4.36 Gb ( 4 570 420,00 KBytes ) - DVD-5
    Enabled regions: 1, 2, 3, 4, 5, 6, 7, 8

    VTS_01 :
    Play Length: 01:46:01
    Video: NTSC 16:9 (720x480) VBR, Auto Letterboxed
    Audio:
    Russian (Dolby AC3, 6 ch)
    English (Dolby AC3, 6 ch)
    Subtitles:
    Russian
    English

    * Menus Information *

    VIDEO_TS Menu
    Video:
    NTSC 4:3 (720x480) VBR
    English Language Unit :
    Title Menu

    VTS_01 Menu
    Video:
    NTSC 16:9 (720x480) VBR
    Auto Letterboxed
    English Language Unit :
    Root Menu
    MediaInfo:
    Общее
    Полное имя : D:ВидеоPercy Jackson. Sea of Monsters (2013) DVD5 BD - DVDVIDEO_TSVTS_01_1.VOB
    Формат : MPEG-PS
    Размер файла : 1000 Мбайт
    Продолжительность : 22 м.
    Режим общего битрейта : Переменный
    Общий поток : 6254 Кбит/сек

    Видео
    Идентификатор : 224 (0xE0)
    Формат : MPEG Video
    Версия формата : Version 2
    Профиль формата : Main@Main
    Параметр BVOP формата : Да
    Параметр матрицы формата : Выборочная
    Параметр GOP формата : Variable
    Продолжительность : 22 м.
    Вид битрейта : Переменный
    Битрейт : 5233 Кбит/сек
    Максимальный битрейт : 8000 Кбит/сек
    Ширина : 720 пикселей
    Высота : 480 пикселей
    Соотношение сторон : 16:9
    Частота кадров : 23,976 кадра/сек
    Стандарт вещания : NTSC
    Цветовое пространство : YUV
    Субдискретизация насыщенности : 4:2:0
    Битовая глубина : 8 бит
    Тип развёртки : Прогрессивная
    Порядок развёртки : 2:3 Pulldown
    Метод сжатия : С потерями
    Бит/(Пиксели*Кадры) : 0.632
    Временной код первого кадра : 00:00:00:00
    Оригинал временного кода : Group of pictures t_head
    Размер потока : 837 Мбайт (84%)

    Аудио #1
    Идентификатор : 189 (0xBD)-128 (0x80)
    Формат : AC-3
    Формат/Информация : Audio Coding 3
    Расширение режима : CM (complete main)
    Параметр Endianness формата : Big
    Режим смешивания : DVD-Video
    Продолжительность : 22 м.
    Вид битрейта : Постоянный
    Битрейт : 448 Кбит/сек
    Каналы : 6 каналов
    Расположение каналов : Front: L C R, Side: L R, LFE
    Частота : 48,0 КГц
    Битовая глубина : 16 бит
    Метод сжатия : С потерями
    Размер потока : 71,6 Мбайт (7%)

    Аудио #2
    Идентификатор : 189 (0xBD)-129 (0x81)
    Формат : AC-3
    Формат/Информация : Audio Coding 3
    Расширение режима : CM (complete main)
    Параметр Endianness формата : Big
    Режим смешивания : DVD-Video
    Продолжительность : 22 м.
    Вид битрейта : Постоянный
    Битрейт : 448 Кбит/сек
    Каналы : 6 каналов
    Расположение каналов : Front: L C R, Side: L R, LFE
    Частота : 48,0 КГц
    Битовая глубина : 16 бит
    Метод сжатия : С потерями
    Размер потока : 71,6 Мбайт (7%)

    Текст #1
    Идентификатор : 189 (0xBD)-32 (0x20)
    Формат : RLE
    Формат/Информация : Run-length encoding
    Режим смешивания : DVD-Video

    Текст #2
    Идентификатор : 189 (0xBD)-33 (0x21)
    Формат : RLE
    Формат/Информация : Run-length encoding
    Режим смешивания : DVD-Video

    Меню

    Доп. информация:
    Источник видео, аудио, субтитров, celltimes.
    Меню создано с нуля, с помощью DVD-lab PRO.
    Видео перекодировано с помощью ProCoder 3 в 2 прохода.
    Аудио получены с помощью программ eac3to и Sonic foundry Soft.
    Бриф по изготовлению DVD:
    Информация о видео
    ProCoder 3 - конвертация видео
    AviSynth - обработка видео
    FFMpegSource2 - индексирование

    Информация о звуке
    eac3to - разборка на waw
    Sonic foundry Soft - получение ac3 448

    Программы для разборки/сборки
    eac3to - разложение BD на потоки

    Работа с меню и реавторинг
    DVD-lab PRO - создание меню
    Adobe Photoshop - редактирование меню
    DVDReMakePro - реавторинг диска
    Скриншоты для ознакомления меню:

    Скриншоты для ознакомления:

    За DVD5 спасибо большое Алексей45673
    Залил: Саша 1992
    Размер скачиваемого торрента: 4.36 GB (4680110080 Bytes)

    Перси Джексон и Море чудовищ / Percy Jackson: Sea of Monsters (2013) DVD5 скачать через торрент бесплатно
    загрузка...
    Рейтинг →
     (голосов: 1, оценка 4/5, голосовать можно 1 раз )

    Другие торренты по теме:

  • OST - Перси Джексон и похититель молний / Percy Jackson And The Lightening Thief (2010) MP3 торрент скачать бесплатно
  • Перси Джексон и похититель молний / Percy Jackson and the Olympians: The Lightning Thief (2010) BDRip-AVC от potroks | D торрент скачать бесплатно
  • Перси Джексон: Море чудовищ / Percy Jackson: Sea of Monsters (2013) HD 1080p | Трейлер торрент скачать бесплатно
  • Перси Джексон и похититель молний / Percy Jackson the Olympians: The Lightning Thief (2010) BDRip 1080p от NoLimits-Team торрент скачать бесплатно
  • Перси Джексон и Море чудовищ / Percy Jackson: Sea of Monsters (2013) CAMRip*PROPER* от INTERCINEMA торрент скачать бесплатно
  • Перси Джексон и Море чудовищ / Percy Jackson: Sea of Monsters (2013) TS от INTERCINEMA торрент скачать бесплатно
  • Перси Джексон и Море чудовищ / Percy Jackson: Sea of Monsters (2013) WEB-DLRip 1080p | Звук с CAMRip торрент скачать бесплатно
  • Перси Джексон и Море чудовищ / Percy Jackson: Sea of Monsters (2013) WEB-DLRip | Звук с CAMRip торрент скачать бесплатно


    • Комментарии (0):

      Информация

      Информация

        Посетители, находящиеся в группе Гости, не могут оставлять комментарии в данной новости.

        ↓ Меню



        ↓ Опрос

        А Вы добавили сайт в закладки?
        Да
        Не


        Top 10 за неделю (Фильмы)