.
Авторизация | Регистрация
Хочешь лучшие торренты? Добавь свой email!
Добавить
» » Белый шквал / White Squall (1996) BDRemux 1080p от ExKinoRay | P, A скачать через торрент бесплатно




    Белый шквал / White Squall (1996) BDRemux 1080p от ExKinoRay | P, A скачать через торрент бесплатно

    Опубликовал: Админ | Дата: 27-02-2015, 11:10 | Просмотров: 325




    Детально о кино

    Русское название: Белый шквал
    Русское название в мировом прокате: White Squall
    Создали в: 1996
    Категория жанра: Драма, приключения, реальные события, экранизация
    Снималось в: США, Hollywood Pictures, Largo Entertainment, Scott Free Productions.
    Главный режиссер: Ридли Скотт
    Актеры: Джефф Бриджес, Кэролайн Гудолл, Джон Сэвидж, Скотт Вулф, Джереми Систо, Райан Филипп, Дэвид Лэшер, Эрик Майкл Коул, Джейсон Мэрсден, Дэвид Селби, Хулио Оскар Мечосо, Желько Иванек, Бальтазар Гетти, Итэн Эмбри


    Сюжет фильма: Фильм основан на реальных событиях. Осенью 1960 года парусная бригантина Альбатрос под руководством капитана Кристофера Шелдона ушла в кругосветное плавание. Оно могло бы стать чуть ли не круизом, если бы проходило при тихой погоде. Но мальчишки, заканчивавшие на борту Альбатроса обучение в Океанской академии, знали, сколь обманчивым любит прикидываться океан. Они знали, что в шторм океан перестает быть безбрежным: многометровые волны окружают небольшой кораблик в жажде раздавить его, и куда ни бросишь взгляд - всюду только громадная стена воды. Они знали, что в шторм океан перестает быть прозрачным: мутная грязь так и норовит заткнуть твой рот навсегда, чтобы ты нашел свой покой где-нибудь на дне этого страшного зверя. Они знали, что в шторм океан перестает быть тихим: за его ревом не слышен даже собственный вопль, вырывающийся из груди с последним предсмертным хрипом… Не всем членам экипажа Альбатроса суждено было остаться в живых. По произведению Чарльза Гиг мл., Феликса Саттона.





    Файл

    Качество фильма: Blu-Ray Remux (1080p)
    Информация о видео: MPEG-4 AVC, 13000 Кбит/с, 1920x1080, 23.976 кадр/с
    Информация о звуке: Русский (AC3, 6 ch, 448 Кбит/с), английский (DTS-HD MA, 6 ch, 3457 Кбит/с)
    Размер скачиваемого торрента: 16.08 ГБ
    Время просмотра: 02:08:57
    Перевод текста: Профессиональный многоголосый, авторский одноголосый (А.Гаврилов)
    Субтитры: Русские, английские


    За исходник, большое спасибо BLUEBIRD
    Сохранены оригинальные чаптеры как на Blu-Ray



    Инфо-файл

    Общее
    Уникальный идентификатор : 197991443885594168660580136674000650494 (0x94F3C3DA64C830B5B769799137CC40FE)
    Полное имя : C:DownloadsWhite.Squall.1996.BDRemux.(1080p).ExKinoRay.mkv
    Формат : Matroska
    Версия формата : Version 2
    Размер файла : 16,1 Гбайт
    Продолжительность : 2 ч. 8 м.
    Режим общего битрейта : Переменный
    Общий поток : 17,8 Мбит/сек
    Название фильма : Белый шквал.1996.Сборка: ollan
    Дата кодирования : UTC 2014-02-08 10:26:33
    Программа кодирования : mkvmerge v5.6.0 (;Kenya Kane;) built on May 27 2012 16:44:04
    Библиотека кодирования : libebml v1.2.3 libmatroska v1.3.0

    Видео
    Идентификатор : 1
    Формат : AVC
    Формат/Информация : Advanced Video Codec
    Профиль формата : High@L4.1
    Параметр CABAC формата : Да
    Параметр ReFrames формата : 4 кадра
    Параметр GOP формата : M=3, N=24
    Идентификатор кодека : V_MPEG4/ISO/AVC
    Продолжительность : 2 ч. 8 м.
    Вид битрейта : Переменный
    Максимальный битрейт : 35,0 Мбит/сек
    Ширина : 1920 пикселей
    Высота : 1080 пикселей
    Соотношение сторон : 16:9
    Режим частоты кадров : Постоянный
    Частота кадров : 23,976 кадра/сек
    Стандарт вещания : NTSC
    Цветовое пространство : YUV
    Субдискретизация насыщенности : 4:2:0
    Битовая глубина : 8 бит
    Тип развёртки : Прогрессивная
    Default : Да
    Forced : Нет
    Основные цвета : BT.709
    Характеристики трансфера : BT.709
    Коэффициенты матрицы : BT.709

    Аудио #1
    Идентификатор : 2
    Формат : AC-3
    Формат/Информация : Audio Coding 3
    Расширение режима : CM (complete main)
    Параметр Endianness формата : Big
    Идентификатор кодека : A_AC3
    Продолжительность : 2 ч. 8 м.
    Вид битрейта : Постоянный
    Битрейт : 448 Кбит/сек
    Каналы : 6 каналов
    Расположение каналов : Front: L C R, Side: L R, LFE
    Частота : 48,0 КГц
    Битовая глубина : 16 бит
    Метод сжатия : С потерями
    Размер потока : 413 Мбайт (3%)
    Заголовок : Профессиональный многоголосый
    Язык : Russian
    Default : Да
    Forced : Нет

    Аудио #2
    Идентификатор : 3
    Формат : AC-3
    Формат/Информация : Audio Coding 3
    Расширение режима : CM (complete main)
    Параметр Endianness формата : Big
    Идентификатор кодека : A_AC3
    Продолжительность : 2 ч. 8 м.
    Вид битрейта : Постоянный
    Битрейт : 448 Кбит/сек
    Каналы : 6 каналов
    Расположение каналов : Front: L C R, Side: L R, LFE
    Частота : 48,0 КГц
    Битовая глубина : 16 бит
    Метод сжатия : С потерями
    Размер потока : 413 Мбайт (3%)
    Заголовок : А.Гаврилов
    Язык : Russian
    Default : Нет
    Forced : Нет

    Аудио #3
    Идентификатор : 4
    Формат : DTS
    Формат/Информация : Digital Theater Systems
    Профиль формата : MA / Core
    Режим : 16
    Параметр Endianness формата : Big
    Идентификатор кодека : A_DTS
    Продолжительность : 2 ч. 8 м.
    Вид битрейта : Переменный
    Битрейт : Неизвестно / 768 Кбит/сек
    Каналы : 6 каналов
    Расположение каналов : Front: L C R, Side: L R, LFE
    Частота : 48,0 КГц
    Битовая глубина : 24 бит
    Метод сжатия : Без потерь / Lossy
    Язык : English
    Default : Нет
    Forced : Нет

    Текст #1
    Идентификатор : 5
    Формат : UTF-8
    Идентификатор кодека : S_TEXT/UTF8
    Идентификатор кодека/Информация : UTF-8 Plain Text
    Язык : Russian
    Default : Нет
    Forced : Нет

    Текст #2
    Идентификатор : 6
    Формат : UTF-8
    Идентификатор кодека : S_TEXT/UTF8
    Идентификатор кодека/Информация : UTF-8 Plain Text
    Язык : English
    Default : Нет
    Forced : Нет

    Меню
    00:00:00.000 : :Chapter 01
    00:09:55.595 : :Chapter 02
    00:20:49.122 : :Chapter 03
    00:33:26.170 : :Chapter 04
    00:41:45.044 : :Chapter 05
    00:54:17.963 : :Chapter 06
    01:05:35.973 : :Chapter 07
    01:17:04.870 : :Chapter 08
    01:29:37.997 : :Chapter 09
    01:45:52.262 : :Chapter 10
    01:51:59.587 : :Chapter 11
    02:05:30.022 : :Chapter 12
    02:08:57.563 : :Chapter 13



    Скриншоты для ознакомления







    Релиз подготовил: Сборка:
    Залил: ollan
    Размер скачиваемого торрента: 16.08 GB (17264469399 Bytes)

    Белый шквал / White Squall (1996) BDRemux 1080p от ExKinoRay | P, A скачать через торрент бесплатно
    загрузка...
    Рейтинг →
     (голосов: 1, оценка 4/5, голосовать можно 1 раз )

    Другие торренты по теме:

  • Белый шквал / White Squall (1996) BDRip 1080p | Р, A, P2
  • Белый шквал / White Squall (1996) BDRip-AVC от MediaClub | P, A скачать через торрент бесплатно
  • Белый шквал / White Squall (1996) BDRip 720p от MediaClub | P, A скачать через торрент бесплатно
  • Белый шквал / White Squall (1996) BDRip 1080p от MediaClub | P, A


    • Комментарии (0):

      Информация

      Информация

        Посетители, находящиеся в группе Гости, не могут оставлять комментарии в данной новости.

        ↓ Меню



        ↓ Опрос

        А Вы добавили сайт в закладки?
        Да
        Не


        Top 10 за месяц (Фильмы)