.
Авторизация | Регистрация
Хочешь лучшие торренты? Добавь свой email!
Добавить
» » Антисоциалка / Antisocial (2013) HDRip торрент скачать бесплатно




    Антисоциалка / Antisocial (2013) HDRip торрент скачать бесплатно

    Опубликовал: Админ | Дата: 27-02-2015, 11:10 | Просмотров: 273




    Детально о кино
    Русское название: Антисоциалка
    Русское название в мировом прокате: Antisocial
    Создали в: 2013
    Категория жанра: ужасы
    Главный режиссер: Коуди Кэлахан
    Актеры: Мишель Майлетт, Коуди Рэй Томпсон, Адам Кристи, Ана Алич, Ромэйн Вейт, Райан Баррет, Лорел Брандес, Бен Алексис, Чад Арчибальд, Стивен Бартелло

    Сюжет фильма:
    Кинолента рассказывает о пятерых друзьях, собравшихся вместе, чтобы отпраздновать приближение Нового Года. Только вместо новогодних подарков от Санты их поджидал малоприятный сюрприз: в городишке разразилась страшная эпидемия загадочной болезни и люди, просто-напросто, сходят с ума. Распространяется вирус с чудовищной скоростью. Что остается нашим героям? Они забаррикадировались в доме и сдерживают нападения обезумевших людей извне. Только удастся ли им самим избежать заражения?..




    Снималось в: Канада
    Время просмотра: 01:29:14
    Перевод текста: Любительское (одноголосое) - ХихиДок

    Файл
    Кодек для видео: XviD
    Качество фильма: HDRip (Исх. BDRip 720p)
    Информация о видео: 640x336 (1.90:1), 24.000 fps, XviD build 50 ~1029 kbps avg, 0.20 bit/pixel
    Информация о звуке: 44.100 kHz, MPEG Layer 3, 2 ch, ~128.00 kbps avg
    Субтитры: нет

    Семпл

    MediaInfo

    Общее
    Полное имя : S:ФильмыАнтисоциалка. 2013 HDRi.avi
    Формат : AVI
    Формат/Информация : Audio Video Interleave
    Размер файла : 744 Мбайт
    Продолжительность : 1 ч. 29 м.
    Общий поток : 1166 Кбит/сек
    Программа кодирования : VirtualDubMod 1.5.10.3 | www.virtualdub-fr.org || (build 2550/release)
    Библиотека кодирования : VirtualDubMod build 2550/release

    Видео
    Идентификатор : 0
    Формат : MPEG-4 Visual
    Профиль формата : Advanced Simple@L5
    Параметр BVOP формата : 2
    Параметр QPel формата : Нет
    Параметр GMC формата : Без точки перехода
    Параметр матрицы формата : Выборочная
    Идентификатор кодека : XVID
    Идентификатор кодека/Подсказка : XviD
    Продолжительность : 1 ч. 29 м.
    Битрейт : 1029 Кбит/сек
    Ширина : 640 пикс.
    Высота : 336 пикс.
    Соотношение сторон : 1,905
    Частота кадров : 24,000 кадр/сек
    Цветовое пространство : YUV
    Подвыборка цветности : 4:2:0
    Битовая глубина : 8 бит
    Тип развёртки : Прогрессивная
    Метод сжатия : С потерями
    Бит/(Пиксели*Кадры) : 0.199
    Размер потока : 657 Мбайт (88%)
    Библиотека кодирования : XviD 1.2.1 (UTC 2008-12-04)

    Аудио
    Идентификатор : 1
    Формат : MPEG Audio
    Версия формата : Version 1
    Профиль формата : Layer 3
    Идентификатор кодека : 55
    Идентификатор кодека/Подсказка : MP3
    Продолжительность : 1 ч. 29 м.
    Вид битрейта : Постоянный
    Битрейт : 128 Кбит/сек
    Каналы : 2 канала
    Частота : 44,1 КГц
    Метод сжатия : С потерями
    Размер потока : 81,7 Мбайт (11%)
    Выравнивание : Разделение по промежуткам
    Продолжительность промежутка : 42 мс. (1,00 видеокадр)
    Время предзагрузки промежутка : 500 ms
    Библиотека кодирования : LAME3.99r
    Залил: kolja_jukov
    Размер скачиваемого торрента: 744.43 MB (780587008 Bytes)


    Антисоциалка / Antisocial (2013) HDRip торрент скачать бесплатно
    загрузка...
    Рейтинг →
     (голосов: 1, оценка 5/5, голосовать можно 1 раз )

    Другие торренты по теме:



      Комментарии (0):

      Информация

      Информация

        Посетители, находящиеся в группе Гости, не могут оставлять комментарии в данной новости.

        ↓ Меню



        ↓ Опрос

        А Вы добавили сайт в закладки?
        Да
        Не


        Top 10 за месяц (Фильмы)