.
Авторизация | Регистрация
» » Каннибал / Canibal (2013) BDRip 720p от CINEMANIA | L1 скачать через торрент бесплатно




    Каннибал / Canibal (2013) BDRip 720p от CINEMANIA | L1 скачать через торрент бесплатно

    Опубликовал: Админ | Дата: 27-02-2015, 11:10 | Просмотров: 157




    Детально о кино
    Русское название: Каннибал
    Русское название в мировом прокате: Canibal
    Создали в: 2013
    Категория жанра: Триллер
    Главный режиссер: Мануэль Мартин Куенка
    Актеры: Антонио де ла Торре, Олимпия Мелинте, Маноло Соло, Мария Альфонса Россо, Дэльфин Темпелс, Иоланда Серрано, Хоакин Нуньес, Грегори Броссар

    Сюжет фильма:
    Карлос работает портным мужских костюмов в Гранаде, одном из тихих южных городков Испании, где время, кажется, остановилось, и вещи, скрытые в тени, остаются незамеченными. Карлос живет относительно изолированной жизнью, и редко общается либо взаимодействует с кем-то, кроме своих клиентов. Никто не мог бы и представить, что этот спокойный и порядочный портной на самом деле убийца и каннибал, который без зазрения совести обагряет руки кровью иностранных девушек, заполняет их трупами свою морозильную камеру, готовит и ест их мясо. Но вот однажды на пороге его дома появляется Нина, румынская сестра-близнец одной из жертв Карлоса, в поисках местонахождения убитой. С этого момента Карлос влюбляется в Нину, стирается тонкая грань внутри него, и начинается игра света и тени. Что победит: желание убивать или любовь?



    Снималось в: Испания, Румыния, Россия, Франция
    Время просмотра: 01:57:05
    Тип перевода: Любительское (одноголосое) datynet

    Файл
    Тип видео: MKV
    Качество фильма: BDRip 720p PHD
    Информация о видео: 5240 kb/s, 1280x544
    Информация о звуке: Russian: AC3, 192 kb/s (2 ch) / Spanish: DTS, 1510 kb/s (6 ch)
    Субтитры: Russian ХиХиДок, English
    Дополнительно: Сохранены оригинальные чаптеры как на Blu-Ray
    Размер скачиваемого торрента: 5.79 GB
    Скачать: Сэмпл

    Релиз группы:




    NFO
    Общее
    Cannibal.2013.Blu.Ray.720p.CINEMANIA.mkv
    Формат : Matroska
    Версия формата : Version 4 / Version 2
    Размер файла : 5,79 Гбайт
    Продолжительность : 1 ч. 57 м.
    Общий поток : 7082 Кбит/сек
    Название фильма : Release Group CINEMANIA
    Дата кодирования : UTC 2014-02-10 17:16:00
    Программа кодирования : mkvmerge v6.7.0 (;Back to the Ground;) 64bit built on Jan 8 2014 15:10:52
    Библиотека кодирования : libebml v1.3.0 libmatroska v1.4.1

    Видео
    Идентификатор : 1
    Формат : AVC
    Формат/Информация : Advanced Video Codec
    Профиль формата : High@L4.1
    Параметр CABAC формата : Да
    Параметр ReFrames формата : 5 кадров
    Идентификатор кодека : V_MPEG4/ISO/AVC
    Продолжительность : 1 ч. 57 м.
    Битрейт : 5240 Кбит/сек
    Ширина : 1280 пикселей
    Высота : 544 пикселя
    Соотношение сторон : 2,35:1
    Режим частоты кадров : Постоянный
    Частота кадров : 24,000 кадра/сек
    Цветовое пространство : YUV
    Субдискретизация насыщенности : 4:2:0
    Битовая глубина : 8 бит
    Тип развёртки : Прогрессивная
    Бит/(Пиксели*Кадры) : 0.314
    Размер потока : 4,29 Гбайт (74%)
    Заголовок : Release Group CINEMANIA
    Язык : English
    Default : Да
    Forced : Нет

    Аудио #1
    Идентификатор : 2
    Формат : AC-3
    Формат/Информация : Audio Coding 3
    Расширение режима : CM (complete main)
    Параметр Endianness формата : Big
    Идентификатор кодека : A_AC3
    Продолжительность : 1 ч. 57 м.
    Вид битрейта : Постоянный
    Битрейт : 192 Кбит/сек
    Каналы : 2 канала
    Расположение каналов : Front: L R
    Частота : 44,1 КГц
    Битовая глубина : 16 бит
    Метод сжатия : С потерями
    Размер потока : 161 Мбайт (3%)
    Заголовок : datynet
    Язык : Russian
    Default : Да
    Forced : Да

    Аудио #2
    Идентификатор : 3
    Формат : DTS
    Формат/Информация : Digital Theater Systems
    Режим : 16
    Параметр Endianness формата : Big
    Идентификатор кодека : A_DTS
    Продолжительность : 1 ч. 57 м.
    Вид битрейта : Постоянный
    Битрейт : 1509 Кбит/сек
    Каналы : 6 каналов
    Расположение каналов : Front: L C R, Side: L R, LFE
    Частота : 48,0 КГц
    Битовая глубина : 24 бит
    Метод сжатия : С потерями
    Размер потока : 1,23 Гбайт (21%)
    Язык : Spanish
    Default : Нет
    Forced : Нет

    Текст #1
    Идентификатор : 4
    Формат : UTF-8
    Идентификатор кодека : S_TEXT/UTF8
    Идентификатор кодека/Информация : UTF-8 Plain Text
    Заголовок : ХиХиДок
    Язык : Russian
    Default : Нет
    Forced : Нет

    Текст #2
    Идентификатор : 5
    Формат : UTF-8
    Идентификатор кодека : S_TEXT/UTF8
    Идентификатор кодека/Информация : UTF-8 Plain Text
    Язык : English
    Default : Нет
    Forced : Нет

    Меню
    00:00:00.000 : en:00:00:00.000
    00:20:24.375 : en:00:20:24.375
    00:39:03.583 : en:00:39:03.583
    00:50:41.708 : en:00:50:41.708
    01:07:00.833 : en:01:07:00.833
    01:21:58.292 : en:01:21:58.292
    01:37:28.750 : en:01:37:28.750
    01:48:51.792 : en:01:48:51.792


    Залил: DGEKIGAN
    Размер скачиваемого торрента: 5.79 GB (6219000648 Bytes)

    Каннибал / Canibal (2013) BDRip 720p от CINEMANIA | L1 скачать через торрент бесплатно
    загрузка...
    Рейтинг →
     (голосов: 1, оценка 4/5, голосовать можно 1 раз )

    Другие торренты по теме:

  • Каннибал-вегетарианец / Ljudozder vegetarijanac (2012) DVDRip | L1 торрент скачать бесплатно
  • Сексуальный каннибал / El canibal / Devil hunter (1980) DVDRip торрент скачать бесплатно
  • Каннибал / Cannibal (2010) BDRip от Rulya74 | L2 торрент скачать бесплатно
  • Каннибал / Canibal (2013) BDRip 1080p от CINEMANIA | L1 скачать через торрент бесплатно
  • Каннибал / Canbal (2013) HDRip | L1 скачать через торрент бесплатно
  • Каннибал / Canbal (2013) HDRip | Sub скачать через торрент бесплатно
  • Каннибал / Canbal (2013) BDRip от MediaClub | L1 скачать через торрент бесплатно
  • Дело копа-каннибала / Thought Crimes: The Case of the Cannibal Cop (2015) HDTVRip | Р скачать торрент бесплатно


    • Комментарии (0):

      Информация

      Информация

        Посетители, находящиеся в группе Гости, не могут оставлять комментарии в данной новости.

        ↓ Меню



        ↓ Опрос

        А Вы добавили сайт в закладки?
        Да
        Не


        Top 10 за неделю (Фильмы)