.
Авторизация | Регистрация
Хочешь лучшие торренты? Добавь свой email!
Добавить
» » Железная хватка / True Grit (2010) BDRip-AVC | D, P2, A, L1 скачать через торрент бесплатно




    Железная хватка / True Grit (2010) BDRip-AVC | D, P2, A, L1 скачать через торрент бесплатно

    Опубликовал: Админ | Дата: 27-02-2015, 11:10 | Просмотров: 232




    Русское название: Железная хватка
    Русское название в мировом прокате: True Grit
    Создали в: 2010
    Категория жанра: Драма, приключения, вестерн
    Снималось в: США, Mike Zoss Productions, Paramount Pictures, Scott Rudin Productions, Skydance Productions
    Время просмотра: 01:50:20
    Перевод текста: Дублированный, профессиональный (двухголосый закадровый), авторский (одноголосый), любительский (одноголосый)

    Главный режиссер: Итан Коэн, Джоэл Коэн

    Актеры: Джефф Бриджес, Хейли Стайнфелд, Мэтт Дэймон, Джош Бролин, Барри Пеппер, Дэкин Мэтьюз, Ярлат Конрой, Пол Рэй, Донал Глисон, Элизабет Марвел

    Сюжет фильма:
    Римейк фильма Настоящее мужество (снятого в 1969 году режиссером Генри Хэтуэем), вестерн Железная хватка братьев Коэн стал самым кассовым фильмом и одним из самых кассовых вестернов в истории кинематографа. Мэтти Росс, четырнадцатилетняя девочка, покидает свой дом, чтобы найти и наказать убийцу отца, - бродягу и разбойника по имени Том Чейни. Приехав в город, она узнает, что Чейни скрылся на индейской территории, где нет закона и к тому же хозяйничает банда некоего Неда Пеппера по прозвищу Счастливчик. Это не останавливает Мэтти: распродав остатки отцовского имущества, она нанимает для поисков Рубена Когберна - одноглазого федерального маршала по прозвищу Задира, известного своим пьянством, вспыльчивостью и упорством, - железной хваткой. К ним присоединяется техасский рейнджер Лабёф, также разыскивающий Чейни за убийство сенатора. Рано утром троица отправляется в опасный путь… Фильм снят по мотивам романа Чарльза Портиса Железная хватка.



    Качество фильма: BDRip (AVC)
    Информация о видео: MPEG-4 AVC, 1407 Кбит/с, 1024x436
    Информация о звуке 1: AC3 , 6 ch, 384 Кбит/с - Дублированный
    Информация о звуке 2: AC3 , 6 ch, 448 Кбит/с - Профессионльный двухголосый (OzzTV)
    Информация о звуке 3: AC3 , 6 ch, 448 Кбит/с - Авторский (Андрей Гаврилов)
    Информация о звуке 4: AC3 , 6 ch, 448 Кбит/с - Авторский (Леонид Володарский)
    Информация о звуке 5: AC3 , 6 ch, 448 Кбит/с - Авторский (Юрий Сербин)
    Информация о звуке 6: AC3 , 6 ch, 448 Кбит/с - Авторский (Антон Карповский)
    Информация о звуке 7: AC3 , 6 ch, 384 Кбит/с - Авторский (Вадим Назаров)
    Информация о звуке 8: AC3 , 6 ch, 448 Кбит/с - Любительский одноголосый (Михаил Чадов по Гоблину)

    MediaInfo
    Format : Matroska
    Format version : Version 2
    File size : 3.82 GiB
    Duration : 1h 50mn
    Overall bit rate : 4 961 Kbps
    Encoded date : UTC 2014-02-09 11:19:32
    Writing application : mkvmerge v5.3.0 (;I could have danced;) built on Feb 9 2012 10:38:07
    Writing library : libebml v1.2.3 libmatroska v1.3.0
    Attachment : Yes

    Video
    ID : 1
    Format : AVC
    Format/Info : Advanced Video Codec
    Format profile : High@L4.1
    Format settings, CABAC : Yes
    Format settings, ReFrames : 12 frames
    Codec ID : V_MPEG4/ISO/AVC
    Duration : 1h 50mn
    Bit rate : 1 407 Kbps
    Nominal bit rate : 1 502 Kbps
    Width : 1 024 pixels
    Height : 436 pixels
    Display aspect ratio : 2.35:1
    Frame rate mode : Constant
    Frame rate : 23.976 fps
    Color space : YUV
    Chroma subsampling : 4:2:0
    Bit depth : 8 bits
    Scan type : Progressive
    Bits/(Pixel*Frame) : 0.131
    Stream size : 1.08 GiB (28%)
    Writing library : x264 core 114 r1924 08d04a4
    Encoding settings : cabac=1 / ref=12 / deblock=1:-2:-1 / analyse=0x3:0x133 / me=umh / subme=9 / psy=1 / psy_rd=1.00:0.05 / mixed_ref=1 / me_range=32 / chroma_me=1 / trellis=2 / 8x8dct=1 / cqm=0 / deadzone=21,11 / fast_pskip=0 / chroma_qp_offset=-3 / threads=12 / sliced_threads=0 / nr=0 / decimate=1 / interlaced=0 / constrained_intra=0 / bframes=11 / b_pyramid=2 / b_adapt=2 / b_bias=0 / direct=3 / weightb=1 / open_gop=0 / weightp=2 / keyint=250 / keyint_min=23 / scenecut=40 / intra_refresh=0 / rc_lookahead=40 / rc=2pass / mbtree=0 / bitrate=1502 / ratetol=1.0 / qcomp=0.65 / qpmin=0 / qpmax=69 / qpstep=4 / cplxblur=20.0 / qblur=0.5 / vbv_maxrate=50000 / vbv_bufsize=50000 / nal_hrd=none / ip_ratio=1.40 / pb_ratio=1.30 / aq=2:0.90 / zones=151306,158729,q=35
    Language : English
    Default : Yes
    Forced : No

    Audio #1
    ID : 2
    Format : AC-3
    Format/Info : Audio Coding 3
    Mode extension : CM (complete main)
    Format settings, Endianness : Big
    Codec ID : A_AC3
    Duration : 1h 50mn
    Bit rate mode : Constant
    Bit rate : 384 Kbps
    Channel(s) : 6 channels
    Channel positions : Front: L C R, Side: L R, LFE
    Sampling rate : 48.0 KHz
    Bit depth : 16 bits
    Compression mode : Lossy
    Stream size : 303 MiB (8%)
    Title : Дублированный
    Language : Russian
    Default : No
    Forced : No

    Audio #2
    ID : 3
    Format : AC-3
    Format/Info : Audio Coding 3
    Mode extension : CM (complete main)
    Format settings, Endianness : Big
    Codec ID : A_AC3
    Duration : 1h 50mn
    Bit rate mode : Constant
    Bit rate : 448 Kbps
    Channel(s) : 6 channels
    Channel positions : Front: L C R, Side: L R, LFE
    Sampling rate : 48.0 KHz
    Bit depth : 16 bits
    Compression mode : Lossy
    Stream size : 354 MiB (9%)
    Title : Двухголосый 448kbps_OzzTV
    Language : Russian
    Default : No
    Forced : No

    Audio #3
    ID : 4
    Format : AC-3
    Format/Info : Audio Coding 3
    Mode extension : CM (complete main)
    Format settings, Endianness : Big
    Codec ID : A_AC3
    Duration : 1h 50mn
    Bit rate mode : Constant
    Bit rate : 448 Kbps
    Channel(s) : 6 channels
    Channel positions : Front: L C R, Side: L R, LFE
    Sampling rate : 48.0 KHz
    Bit depth : 16 bits
    Compression mode : Lossy
    Stream size : 354 MiB (9%)
    Title : А.Гаврилов
    Language : Russian
    Default : Yes
    Forced : No

    Audio #4
    ID : 5
    Format : AC-3
    Format/Info : Audio Coding 3
    Mode extension : CM (complete main)
    Format settings, Endianness : Big
    Codec ID : A_AC3
    Duration : 1h 50mn
    Bit rate mode : Constant
    Bit rate : 448 Kbps
    Channel(s) : 6 channels
    Channel positions : Front: L C R, Side: L R, LFE
    Sampling rate : 48.0 KHz
    Bit depth : 16 bits
    Compression mode : Lossy
    Stream size : 354 MiB (9%)
    Title : Л.Володарский
    Language : Russian
    Default : No
    Forced : No

    Audio #5
    ID : 6
    Format : AC-3
    Format/Info : Audio Coding 3
    Mode extension : CM (complete main)
    Format settings, Endianness : Big
    Codec ID : A_AC3
    Duration : 1h 50mn
    Bit rate mode : Constant
    Bit rate : 448 Kbps
    Channel(s) : 6 channels
    Channel positions : Front: L C R, Side: L R, LFE
    Sampling rate : 48.0 KHz
    Bit depth : 16 bits
    Compression mode : Lossy
    Stream size : 354 MiB (9%)
    Title : Ю.Сербин
    Language : Russian
    Default : No
    Forced : No

    Audio #6
    ID : 7
    Format : AC-3
    Format/Info : Audio Coding 3
    Mode extension : CM (complete main)
    Format settings, Endianness : Big
    Codec ID : A_AC3
    Duration : 1h 50mn
    Bit rate mode : Constant
    Bit rate : 448 Kbps
    Channel(s) : 6 channels
    Channel positions : Front: L C R, Side: L R, LFE
    Sampling rate : 48.0 KHz
    Bit depth : 16 bits
    Compression mode : Lossy
    Stream size : 354 MiB (9%)
    Title : А.Карповский
    Language : Russian
    Default : No
    Forced : No

    Audio #7
    ID : 8
    Format : AC-3
    Format/Info : Audio Coding 3
    Mode extension : CM (complete main)
    Format settings, Endianness : Big
    Codec ID : A_AC3
    Duration : 1h 50mn
    Bit rate mode : Constant
    Bit rate : 384 Kbps
    Channel(s) : 6 channels
    Channel positions : Front: L C R, Side: L R, LFE
    Sampling rate : 48.0 KHz
    Bit depth : 16 bits
    Compression mode : Lossy
    Stream size : 303 MiB (8%)
    Title : В.Назаров
    Language : Russian
    Default : No
    Forced : No

    Audio #8
    ID : 9
    Format : AC-3
    Format/Info : Audio Coding 3
    Mode extension : CM (complete main)
    Format settings, Endianness : Big
    Codec ID : A_AC3
    Duration : 1h 50mn
    Bit rate mode : Constant
    Bit rate : 448 Kbps
    Channel(s) : 6 channels
    Channel positions : Front: L C R, Side: L R, LFE
    Sampling rate : 48.0 KHz
    Bit depth : 16 bits
    Compression mode : Lossy
    Stream size : 354 MiB (9%)
    Title : М.Чадов по Гоблину
    Language : Russian
    Default : No
    Forced : No
    Скриншоты для ознакомления


    Размер скачиваемого торрента: 3.82 GB (4105783113 Bytes)

    Железная хватка / True Grit (2010) BDRip-AVC | D, P2, A, L1 скачать через торрент бесплатно
    загрузка...
    Рейтинг →
     (голосов: 1, оценка 5/5, голосовать можно 1 раз )

    Другие торренты по теме:

  • Валентин Лавров - Железная хватка графа Соколова (1998) (2013) MP3
  • Железная хватка / True Grit (2010) BDRip-AVC
  • Железная хватка / True Grit (2010) BDRip 1080p | D, A
  • Железная хватка / True Grit (2010) BDRip 720p от Dream Team | Лицензия
  • Настоящее мужество / Железная хватка / True Grit (1969) BDRip от HQCLUB скачать через торрент бесплатно
  • Железная хватка / True Grit (2010) BDRip от HQCLUB | Лицензия скачать через торрент бесплатно
  • Железная хватка / True Grit (2010) BDRemux 1080p | D, A
  • Железная хватка / True Grit (2010) BDRip 720p от Leonardo and Scarabey


    • Комментарии (0):

      Информация

      Информация

        Посетители, находящиеся в группе Гости, не могут оставлять комментарии в данной новости.

        ↓ Меню



        ↓ Опрос

        А Вы добавили сайт в закладки?
        Да
        Не


        Top 10 за месяц (Фильмы)