.
Авторизация | Регистрация
» » Тренер / Coach (2010) HDTVRip от MediaClub | P2 торрент скачать бесплатно




    Тренер / Coach (2010) HDTVRip от MediaClub | P2 торрент скачать бесплатно

    Опубликовал: Админ | Дата: 27-02-2015, 11:10 | Просмотров: 265



    Детально о кино
    Русское название: Тренер
    Русское название в мировом прокате: Coach
    Создали в: 2010
    Категория жанра: Комедия, мелодрама, спорт
    Главный режиссер: Уилл Фрирз
    Актеры: Хью Дэнси, Джонатан Гутьеррез, Лиэн Балабан, Мэми Гаммер, Майкл Чернус, Бенджамин Уокер, Джиллиан Джейкобс, Дэвид Зайас, Билл Кэмп

    Сюжет фильма:
    Главный герой фильма Тренер (Coach) – Ник застрял в вечной юности: ему уже около тридцати лет, он живет за счет доверительного фонда, не имеет работы и не несет какую-либо ответственность. Когда его девушка, Зои, внезапно бросает его и переезжает в Лос-Анджелес, Ник разрабатывает стратегию, чтобы вернуть ее: устроиться на работу тренером по футболу. При помощи лучшего игрока команды, Гектора, Нику удается воплотить свой план и стать тренером. Однако в реальности все оказывается не так просто.



    Снималось в: США
    Киностудия: Cold Fusion Media Group, Fugitive Films
    Время просмотра: 01:23:11
    Перевод текста: Профессиональный двухголосый (НТВ )

    Файл
    Кодек для видео: XviD
    Качество фильма: HDTVRip
    Информация о видео: 1910 Кбит/с, 720x400, 25.000 кадр/с
    Информация о звуке: Русский (АС3, 2 ch, 256 Кбит/с)

    Семпл

    Скриншоты для ознакомления

    MI
    Общее
    Полное имя : Trener.2010.HDTVRip.MediaClub.avi
    Формат : AVI
    Формат/Информация : Audio Video Interleave
    Размер файла : 1,26 Гбайт
    Продолжительность : 1 ч. 23 м.
    Общий поток : 2176 Кбит/сек
    Название фильма : MediaClub
    Программа кодирования : VirtualDubMod 1.5.4.1 (build 2178/release)
    Библиотека кодирования : VirtualDubMod build 2178/release

    Видео
    Идентификатор : 0
    Формат : MPEG-4 Visual
    Профиль формата : Advanced Simple@L5
    Параметр BVOP формата : 2
    Параметр QPel формата : Нет
    Параметр GMC формата : Без точки перехода
    Параметр матрицы формата : Default (MPEG)
    Идентификатор кодека : XVID
    Идентификатор кодека/Подсказка : XviD
    Продолжительность : 1 ч. 23 м.
    Битрейт : 1910 Кбит/сек
    Ширина : 720 пикселей
    Высота : 400 пикселей
    Соотношение сторон : 16:9
    Частота кадров : 25,000 кадров/сек
    Цветовое пространство : YUV
    Субдискретизация насыщенности : 4:2:0
    Битовая глубина : 8 бит
    Тип развёртки : Прогрессивная
    Метод сжатия : С потерями
    Бит/(Пиксели*Кадры) : 0.265
    Размер потока : 1,11 Гбайт (88%)
    Заголовок : MediaClub
    Библиотека кодирования : XviD 65

    Аудио
    Идентификатор : 1
    Формат : AC-3
    Формат/Информация : Audio Coding 3
    Расширение режима : CM (complete main)
    Параметр Endianness формата : Big
    Идентификатор кодека : 2000
    Продолжительность : 1 ч. 23 м.
    Вид битрейта : Постоянный
    Битрейт : 256 Кбит/сек
    Каналы : 2 канала
    Расположение каналов : Front: L R
    Частота : 48,0 КГц
    Битовая глубина : 16 бит
    Метод сжатия : С потерями
    Размер потока : 152 Мбайт (12%)
    Выравнивание : Разделение по промежуткам
    Продолжительность промежутка : 40 мс. (1,00 видеокадр)
    Время предзагрузки промежутка : 500 мс.


    Релиз подготовил:
    Залил: poja
    Размер скачиваемого торрента: 1.26 GB (1357479936 Bytes)

    Тренер / Coach (2010) HDTVRip от MediaClub | P2 торрент скачать бесплатно
    загрузка...
    Рейтинг →
     (голосов: 1, оценка 4/5, голосовать можно 1 раз )

    Другие торренты по теме:

  • Тимко Илья Сергеевич - ТВОЙ ТРЕНЕР. Основы и нюансы любительского атлетизма (2012) PDF торрент скачать бесплатно
  • Самый лучший тренер / Finding Lenny (2009) SATRip от RG MixTorrent | P торрент скачать бесплатно
  • Тренер Картер / Coach Carter (2005) BDRemux | P торрент скачать бесплатно
  • Тимко Илья. Твой Тренер - основы и нюансы любительского атлетизма (2013) PDF торрент скачать бесплатно
  • Тимко Илья - ТВОЙ ТРЕНЕР - основы и нюансы любительского атлетизма (ИЗДАНИЕ 4) (2013) PDF торрент скачать бесплатно
  • Тимко Илья - Твой Тренер - основы и нюансы любительского атлетизма (ИЗДАНИЕ 5) (2013) PDF торрент скачать бесплатно
  • Тимко Илья - Твой тренер: основы и нюансы любительского атлетизма (2013) PDF скачать через торрент бесплатно
  • Тренер / Coach (2010) HDTVRip-AVC от MediaClub | P2 скачать через торрент бесплатно


    • Комментарии (0):

      Информация

      Информация

        Посетители, находящиеся в группе Гости, не могут оставлять комментарии в данной новости.

        ↓ Меню



        ↓ Опрос

        А Вы добавили сайт в закладки?
        Да
        Не


        Top 10 за неделю (Фильмы)