.
Авторизация | Регистрация
» » Откройте, полиция! 2 / Продажные против продажных / Ripoux contre ripoux (1990) BDRip 720p от HDClub торрент скачать бесплатно




    Откройте, полиция! 2 / Продажные против продажных / Ripoux contre ripoux (1990) BDRip 720p от HDClub торрент скачать бесплатно

    Опубликовал: Админ | Дата: 27-02-2015, 11:10 | Просмотров: 305



    Детально о кино
    Русское название: Откройте, полиция! 2 / Продажные против продажных
    Русское название в мировом прокате: Ripoux contre ripoux
    Создали в: 1990
    Категория жанра: боевик, комедия, криминал
    Главный режиссер: Клод Зиди
    Актеры: Филипп Нуаре, Тьерри Лермитт, Ги Маршан, Жан-Пьер Кастальди, Грейс Де Капитани, Лин Рено, Мишель Омон, Жан-Клод Бриали, Жан Бенгиги, Кристиан Буйетт

    Сюжет фильма:
    Продажный и его неподкупный напарник попались на пустяке, и их выгнали из полиции, после чего им пришлось уехать на ферму к старому другу Нуаре. Пришедшая же им на смену пара негодяев поставила вымогательство на широкую ногу. С таким размахом, что все мелкие жулики, смеявшиеся над старостью и юностью наших героев, против которых дружно давали показания, просто взвыли. Взвыли и послали делегацию к отверженным бедолагам, забавляющимся мошенничеством на скачках.Они умоляли их вернуться и спасти от новых полицейских, по форме работы больше напоминающих беспредельных рэкитеров. И они вернулись...



    Снималось в: Франция
    Киностудия: Films 7, Orly Films, S?dif Productions, TF1 Films Productions
    Время просмотра: 01:46:11
    Перевод текста: Дублированный, профессиональный многоголосый

    Файл
    Кодек для видео: h.264
    Качество фильма: BDRip 720p
    Информация о видео: 9750 Кбит/с, 1170х720, 24.000 кадр/с

    Информация о звуке:
    Aудио#1: Russian: 48 kHz, AC3, 3/2 (L,C,R,l,r) LFE ch, ~448.00 kbps avg |Многоголосый закадровый, CP-Digital|
    Aудио#2: Russian: 48 kHz, AC3, 2/0 (L,R) ch, ~192.00 kbps avg |Дубляж|
    Aудио#3: Russian: 48 kHz, AC3, 2/0 (L,R) ch, ~192.00 kbps avg |Многоголосый закадровый, ОРТ|
    Aудио#4: Ukrainian: 48 kHz, AC3, 2/0 (L,R) ch, ~192.00 kbps avg |Многоголосый закадровый, НТН|
    Aудио#5: French: 48 kHz/24-bit, DTS 2.0, ~1509.00 kbps avg

    Субтитры: Русские

    MediaInfo

    Полное имя : Ripoux.contre.ripoux.1990.720p.BluRay.3xRus.Ukr.Fre.HDCLUB-SbR.mkv
    Формат : Matroska
    Версия формата : Version 4 / Version 2
    Размер файла : 9,11 Гбайт
    Продолжительность : 1 ч. 46 м.
    Общий поток : 12,3 Мбит/сек
    Дата кодирования : UTC 2014-02-11 09:17:46
    Программа кодирования : mkvmerge v6.7.0 (;Back to the Ground;) 32bit built on Jan 10 2014 19:46:37
    Библиотека кодирования : libebml v1.3.0 libmatroska v1.4.1

    Видео
    Идентификатор : 1
    Формат : AVC
    Формат/Информация : Advanced Video Codec
    Профиль формата : High@L4.1
    Параметр CABAC формата : Да
    Параметр ReFrames формата : 9 кадров
    Идентификатор кодека : V_MPEG4/ISO/AVC
    Продолжительность : 1 ч. 46 м.
    Битрейт : 9750 Кбит/сек
    Ширина : 1170 пикселей
    Высота : 720 пикселей
    Соотношение сторон : 16:10
    Режим частоты кадров : Постоянный
    Частота кадров : 24,000 кадра/сек
    Цветовое пространство : YUV
    Субдискретизация насыщенности : 4:2:0
    Битовая глубина : 8 бит
    Тип развёртки : Прогрессивная
    Бит/(Пиксели*Кадры) : 0.482
    Размер потока : 7,05 Гбайт (77%)
    Библиотека кодирования : x264 core 142 r2389kMod 956c8d8
    Настройки программы : cabac=1 / ref=9 / deblock=1:-3:-3 / analyse=0x3:0x133 / me=esa / subme=10 / psy=1 / fade_compensate=0.00 / psy_rd=0.90:0.00 / mixed_ref=1 / me_range=32 / chroma_me=1 / trellis=2 / 8x8dct=1 / cqm=0 / deadzone=21,11 / fast_pskip=0 / chroma_qp_offset=-2 / threads=6 / lookahead_threads=1 / sliced_threads=0 / nr=0 / decimate=1 / interlaced=0 / bluray_compat=0 / constrained_intra=0 / fgo=0 / bframes=12 / b_pyramid=2 / b_adapt=2 / b_bias=0 / direct=3 / weightb=1 / open_gop=0 / weightp=2 / keyint=250 / keyint_min=24 / scenecut=40 / intra_refresh=0 / rc=2pass / mbtree=0 / bitrate=9750 / ratetol=1.0 / qcomp=0.70 / qpmin=0 / qpmax=69 / qpstep=4 / cplxblur=20.0 / qblur=0.5 / ip_ratio=1.30 / pb_ratio=1.20 / aq=1:0.80
    Язык : English
    Default : Да
    Forced : Нет
    Коэффициенты матрицы : BT.709

    Аудио #1
    Идентификатор : 2
    Формат : AC-3
    Формат/Информация : Audio Coding 3
    Расширение режима : CM (complete main)
    Параметр Endianness формата : Big
    Идентификатор кодека : A_AC3
    Продолжительность : 1 ч. 46 м.
    Вид битрейта : Постоянный
    Битрейт : 448 Кбит/сек
    Каналы : 6 каналов
    Расположение каналов : Front: L C R, Side: L R, LFE
    Частота : 48,0 КГц
    Битовая глубина : 16 бит
    Метод сжатия : С потерями
    Размер потока : 340 Мбайт (4%)
    Заголовок : Многоголосый закадровый, CP-Digital
    Язык : Russian
    Default : Да
    Forced : Нет

    Аудио #2
    Идентификатор : 3
    Формат : AC-3
    Формат/Информация : Audio Coding 3
    Расширение режима : CM (complete main)
    Параметр Endianness формата : Big
    Идентификатор кодека : A_AC3
    Продолжительность : 1 ч. 46 м.
    Вид битрейта : Постоянный
    Битрейт : 192 Кбит/сек
    Каналы : 2 канала
    Расположение каналов : Front: L R
    Частота : 48,0 КГц
    Битовая глубина : 16 бит
    Метод сжатия : С потерями
    Размер потока : 146 Мбайт (2%)
    Заголовок : Дубляж
    Язык : Russian
    Default : Нет
    Forced : Нет

    Аудио #3
    Идентификатор : 4
    Формат : AC-3
    Формат/Информация : Audio Coding 3
    Расширение режима : CM (complete main)
    Параметр Endianness формата : Big
    Идентификатор кодека : A_AC3
    Продолжительность : 1 ч. 46 м.
    Вид битрейта : Постоянный
    Битрейт : 192 Кбит/сек
    Каналы : 2 канала
    Расположение каналов : Front: L R
    Частота : 48,0 КГц
    Битовая глубина : 16 бит
    Метод сжатия : С потерями
    Размер потока : 146 Мбайт (2%)
    Заголовок : Многоголосый закадровый, ОРТ
    Язык : Russian
    Default : Нет
    Forced : Нет

    Аудио #4
    Идентификатор : 5
    Формат : AC-3
    Формат/Информация : Audio Coding 3
    Расширение режима : CM (complete main)
    Параметр Endianness формата : Big
    Идентификатор кодека : A_AC3
    Продолжительность : 1 ч. 46 м.
    Вид битрейта : Постоянный
    Битрейт : 192 Кбит/сек
    Каналы : 2 канала
    Расположение каналов : Front: L R
    Частота : 48,0 КГц
    Битовая глубина : 16 бит
    Метод сжатия : С потерями
    Размер потока : 146 Мбайт (2%)
    Заголовок : Многоголосый закадровый, НТН
    Язык : Ukrainian
    Default : Нет
    Forced : Нет

    Аудио #5
    Идентификатор : 6
    Формат : DTS
    Формат/Информация : Digital Theater Systems
    Режим : 16
    Параметр Endianness формата : Big
    Идентификатор кодека : A_DTS
    Продолжительность : 1 ч. 46 м.
    Вид битрейта : Постоянный
    Битрейт : 1509 Кбит/сек
    Каналы : 2 канала
    Расположение каналов : Front: L R
    Частота : 48,0 КГц
    Битовая глубина : 24 бит
    Метод сжатия : С потерями
    Размер потока : 1,12 Гбайт (12%)
    Язык : French
    Default : Нет
    Forced : Нет

    Текст
    Идентификатор : 7
    Формат : UTF-8
    Идентификатор кодека : S_TEXT/UTF8
    Идентификатор кодека/Информация : UTF-8 Plain Text
    Язык : Russian
    Default : Нет
    Forced : Нет

    Меню
    00:00:00.000 : en:00:00:00.000
    00:09:18.750 : en:00:09:18.750
    00:18:05.375 : en:00:18:05.375
    00:27:51.875 : en:00:27:51.875
    00:35:54.333 : en:00:35:54.333
    00:44:30.917 : en:00:44:30.917
    00:53:55.167 : en:00:53:55.167
    01:00:58.458 : en:01:00:58.458
    01:09:55.250 : en:01:09:55.250
    01:19:59.042 : en:01:19:59.042
    01:28:26.375 : en:01:28:26.375
    01:36:38.333 : en:01:36:38.333
    Скриншоты для ознакомления




    Релиз подготовил:
    Размер скачиваемого торрента: 9.11 GB (9782261414 Bytes)

    Откройте, полиция! 2 / Продажные против продажных / Ripoux contre ripoux (1990) BDRip 720p от HDClub торрент скачать бесплатно
    загрузка...
    Рейтинг →
     (голосов: 1, оценка 4/5, голосовать можно 1 раз )

    Другие торренты по теме:



      Комментарии (0):

      Информация

      Информация

        Посетители, находящиеся в группе Гости, не могут оставлять комментарии в данной новости.

        ↓ Меню



        ↓ Опрос

        А Вы добавили сайт в закладки?
        Да
        Не


        Top 10 за неделю (Фильмы)