.
Авторизация | Регистрация
» » Обитель зла 2: Апокалипсис / Resident Evil: Apocalypse (2004) BDRip-AVC | iPhone | D,P2 торрент скачать бесплатно




    Обитель зла 2: Апокалипсис / Resident Evil: Apocalypse (2004) BDRip-AVC | iPhone | D,P2 торрент скачать бесплатно

    Опубликовал: Админ | Дата: 27-02-2015, 11:10 | Просмотров: 262



    Обитель зла 2: Апокалипсис / Resident Evil: Apocalypse (2004) BDRip-AVC | iPhone | D,P2

    Русское название: Обитель зла 2: Апокалипсис
    Русское название в мировом прокате: Resident Evil: Apocalypsel
    Создали в: 2004
    Категория жанра: ужасы, фантастика, боевик
    Главный режиссер: Александр Уитт
    Актеры: Милла Йовович, Сиенна Гиллори, Одед Фер, Томас Кречманн, Софи Вавасо, Разаак Адоти, Джаред Харрис, Майк Эппс, Сандрин Холт, Мэттью Дж. Тейлор

    Сюжет фильма:
    Действие картины разворачивается на улицах печально известного Ракун-сити, города, контролируемого могущественной корпорацией Амбрелла. После бактериологической катастрофы все жители стали медленно превращаться в зомби, а те немногочисленные граждане, чей разум ещё не был до конца изъеден ужасным вирусом, доживали свои последние дни в атмосфере страха и желания скорейшей смерти...



    Снималось в: Германия, Франция, Великобритания, Канада, США
    Киностудия: Constantin Film Produktion, Davis-Films, Impact Pictures
    Время просмотра: 01:33:46
    Перевод текста: Русский дублированный, профессиональный двухголосый закадровый

    Файл
    Кодек для видео: H.264
    Качество фильма: BDRip-AVC 480p iPhone
    Информация о видео: 640x356@851x356 at 23.976 fps, AVC at 1800 kbps
    Информация о звуке:
    1: 48 kHz, AAC 2.0, 192 kbps - Русский дублированный
    2: 48 kHz, AAC 2.0, 192 kbps - Русский профессиональный двухголосый закадровый
    3: 48 kHz, AAC 2.0, 192 kbps - Английский
    Субтитры: Английские

    Media Info

    General
    Complete name : D:x264480outResident Evil II - Apocalypse.2004 (SD).m4v
    Format : MPEG-4
    Codec ID : M4V
    File size : 1.55 GiB
    Duration : 1h 33mn
    Overall bit rate mode : Variable
    Overall bit rate : 2 361 Kbps
    Movie name : Обитель зла 2: Апокалипсис
    Performer : Александр Уитт
    Genre : Sci-Fi Fantasy
    Recorded date : UTC 2004-12-28 08:00:00
    Encoded date : UTC 2013-08-26 08:15:56
    Tagged date : UTC 2013-08-26 08:27:54
    Copyright : © Constantin Film Ltd., Impact Pictures
    Cover : Yes
    Comment : Она прошла через катакомбы, кишащие зомби. Теперь на её пути целый город...
    iTunEXTC : mpaa|R|400|

    sonm : Resident Evil: Apocalypse
    desc : Действие картины разворачивается на улицах печально известного Ракун-сити, города, контролируемого могущественной корпорацией Амбрелла.
    ldes : Действие картины разворачивается на улицах печально известного Ракун-сити, города, контролируемого могущественной корпорацией Амбрелла. После бактериологической катастрофы все жители стали медленно превращаться в зомби, а те немногочисленные граждане, чей разум ещё не был до конца изъеден ужасным вирусом, доживали свои последние дни в атмосфере страха и желания скорейшей смерти…
    hdvd : 0
    stik : 9
    cnID : 277046884
    xid : Apple:vendor_id:2004-24186

    Video
    ID : 1
    Format : AVC
    Format/Info : Advanced Video Codec
    Format profile : Baseline@L3.0
    Format settings, CABAC : No
    Format settings, ReFrames : 2 frames
    Codec ID : avc1
    Codec ID/Info : Advanced Video Coding
    Duration : 1h 33mn
    Bit rate : 1 800 Kbps
    Maximum bit rate : 7 584 Kbps
    Width : 640 pixels
    Height : 356 pixels
    Display aspect ratio : 2.40:1
    Frame rate mode : Constant
    Frame rate : 23.976 fps
    Color space : YUV
    Chroma subsampling : 4:2:0
    Bit depth : 8 bits
    Scan type : Progressive
    Bits/(Pixel*Frame) : 0.330
    Stream size : 1.18 GiB (76%)
    Title : Resident Evil II - Apocalypse (2004)
    Writing library : x264 core 133 r2334 704 50 a7549b7 tMod 8-bit@4:2:0 X86_64
    Encoding settings : cabac=0 / ref=2 / deblock=1:-1:-1 / analyse=0x1:0x131 / me=umh / subme=7 / psy=1 / fade_compensate=1.00 / psy_rd=0.90:0.10 / mixed_ref=1 / me_range=32 / chroma_me=1 / trellis=2 / 8x8dct=0 / cqm=0 / deadzone=21,11 / fast_pskip=0 / chroma_qp_offset=-3 / threads=18 / lookahead_threads=2 / sliced_threads=0 / nr=0 / decimate=0 / interlaced=0 / bluray_compat=0 / constrained_intra=0 / fgo=0 / bframes=0 / weightp=0 / keyint=250 / keyint_min=23 / scenecut=40 / intra_refresh=0 / rc_lookahead=60 / rc=2pass / mbtree=1 / bitrate=1800 / ratetol=1.0 / qcomp=0.70 / qpmin=0 / qpmax=69 / qpstep=4 / cplxblur=20.0 / qblur=0.5 / vbv_maxrate=5000 / vbv_bufsize=5000 / nal_hrd=none / ip_ratio=1.35 / aq=1:0.00 / aq-sensitivity=10.00 / aq-factor=1.00:1.00:1.00 / aq2=0 / aq3=0
    Language : English
    Encoded date : UTC 2013-08-26 08:15:56
    Tagged date : UTC 2013-08-26 08:16:12
    Matrix coefficients : BT.709

    Audio #1
    ID : 2
    Format : AAC
    Format/Info : Advanced Audio Codec
    Format profile : LC
    Codec ID : 40
    Duration : 1h 33mn
    Bit rate mode : Variable
    Bit rate : 201 Kbps
    Maximum bit rate : 245 Kbps
    Channel(s) : 2 channels
    Channel positions : Front: L R
    Sampling rate : 48.0 KHz
    Compression mode : Lossy
    Stream size : 135 MiB (9%)
    Title : AAC Russian DUB
    Language : Russian
    Encoded date : UTC 2013-08-26 08:16:04
    Tagged date : UTC 2013-08-26 08:16:12

    Audio #2
    ID : 3
    Format : AAC
    Format/Info : Advanced Audio Codec
    Format profile : LC
    Codec ID : 40
    Duration : 1h 28mn
    Bit rate mode : Variable
    Bit rate : 184 Kbps
    Maximum bit rate : 246 Kbps
    Channel(s) : 2 channels
    Channel positions : Front: L R
    Sampling rate : 48.0 KHz
    Compression mode : Lossy
    Stream size : 117 MiB (7%)
    Title : AAC Russian MVO (Glanz)
    Language : Russian
    Encoded date : UTC 2013-08-26 08:16:06
    Tagged date : UTC 2013-08-26 08:16:12

    Audio #3
    ID : 4
    Format : AAC
    Format/Info : Advanced Audio Codec
    Format profile : LC
    Codec ID : 40
    Duration : 1h 28mn
    Bit rate mode : Variable
    Bit rate : 192 Kbps
    Maximum bit rate : 246 Kbps
    Channel(s) : 2 channels
    Channel positions : Front: L R
    Sampling rate : 48.0 KHz
    Compression mode : Lossy
    Stream size : 120 MiB (8%)
    Title : AAC English
    Language : English
    Encoded date : UTC 2013-08-26 08:16:09
    Tagged date : UTC 2013-08-26 08:16:12

    Text
    ID : 5
    Format : Timed Text
    Muxing mode : sbtl
    Codec ID : tx3g
    Duration : 1h 28mn
    Bit rate mode : Variable
    Bit rate : 33 bps
    Stream size : 21.7 KiB (0%)
    Title : Subtitle English
    Language : English
    Encoded date : UTC 2013-08-26 08:16:12
    Tagged date : UTC 2013-08-26 08:16:12

    Menu
    ID : 6
    Codec ID : text
    Duration : 1h 33mn
    Encoded date : UTC 2013-08-26 08:16:42
    Tagged date : UTC 2013-08-26 08:16:42
    Bit rate mode : CBR
    iTunes Meta Tags

    Sort Name: Resident Evil: Apocalypse
    XID: Apple:vendor_id:2004-24186
    Content ID: 277046884
    Copyright: © Constantin Film Ltd., Impact Pictures
    ScreenWriters: Пол У. С. Андерсон
    Producers: Пол У. С. Андерсон, Джереми Болт, Дон Кармоди
    Director: Alexander Witt
    Cast: Милла Йовович, Сиенна Гиллори, Одед Фер, Томас Кречманн, Софи Вавасо, Разаак Адоти, Джаред Харрис, Майк Эппс, Сандрин Холт, Мэттью Дж. Тейлор
    Rating: R
    Long Deion: Действие картины разворачивается на улицах печально известного Ракун-сити, города, контролируемого могущественной корпорацией Амбрелла. После бактериологической катастрофы все жители стали медленно превращаться в зомби, а те немногочисленные граждане, чей разум ещё не был до конца изъеден ужасным вирусом, доживали свои последние дни в атмосфере страха и желания скорейшей смерти…
    Deion: Действие картины разворачивается на улицах печально известного Ракун-сити, города, контролируемого могущественной корпорацией Амбрелла.
    Release Date: 2004-12-28T08:00:00Z
    Genre: Sci-Fi Fantasy
    Artist: Александр Уитт
    Name: Обитель зла 2: Апокалипсис
    Comments: Она прошла через катакомбы, кишащие зомби. Теперь на её пути целый город...

    x264 Log

    x264 info: frame I:5737 Avg QP:19.13 size: 17822
    x264 info: frame P:129215 Avg QP:19.55 size: 8983
    x264 info: mb I I16..4: 49.4% 0.0% 50.6%
    x264 info: mb P I16..4: 4.4% 0.0% 4.0% P16..4: 46.9% 15.0% 7.0% 1.6% 0.6% skip:20.5%
    x264 info: coded y,uvDC,uvAC intra: 45.3% 66.5% 33.4% inter: 35.1% 40.1% 16.3%
    x264 info: i16 v,h,dc,p: 50% 17% 10% 23%
    x264 info: i4 v,h,dc,ddl,ddr,vr,hd,vl,hu: 33% 14% 14% 6% 7% 9% 6% 8% 4%
    x264 info: i8c dc,h,v,p: 56% 14% 23% 7%
    x264 info: ref P L0: 75.5% 24.5%
    x264 info: kb/s:1795.00
    Скриншоты для ознакомления




    Залил: gekka
    Размер скачиваемого торрента: 1.55 GB (1661331143 Bytes)

    Обитель зла 2: Апокалипсис / Resident Evil: Apocalypse (2004) BDRip-AVC | iPhone | D,P2 торрент скачать бесплатно
    загрузка...
    Рейтинг →
     (голосов: 1, оценка 5/5, голосовать можно 1 раз )

    Другие торренты по теме:

  • Обитель зла Проклятие / Biohazard Damnation / Resident Evil Damnation (2012) BDRip 1080p от R.G. GoldenShara | Лицензия торрент скачать бесплатно
  • Обитель зла: Вырождение / Resident Evil: Degeneration (2008) DVD5 торрент скачать бесплатно
  • Обитель Зла: Проклятие / Resident Evil: Damnation (2012) BDRemux 1080p торрент скачать бесплатно
  • Обитель зла: Возмездие / Resident Evil: Retribution (2012) DVD9 от NovaLan торрент скачать бесплатно
  • Обитель зла 2: Апокалипсис / Resident Evil: Apocalypse (2004) BDRip-AVC от 0ptimus | D, P2, A торрент скачать бесплатно
  • OST - Обитель зла / Resident Evil 1-5 (2002-2012) MP3 торрент скачать бесплатно
  • Обитель Зла: Проклятие 3Д / Resident Evil: Damnation 3D (2012) BDRip 1080p | 3D-Video торрент скачать бесплатно
  • Обитель зла 4: Жизнь после смерти / Resident Evil: Afterlife (2010) BDRip 1080p от FREEISLAND | D торрент скачать бесплатно


    • Комментарии (0):

      Информация

      Информация

        Посетители, находящиеся в группе Гости, не могут оставлять комментарии в данной новости.

        ↓ Меню



        ↓ Опрос

        А Вы добавили сайт в закладки?
        Да
        Не


        Top 10 за неделю (Фильмы)