.
Авторизация | Регистрация
Хочешь лучшие торренты? Добавь свой email!
Добавить
» » Помпеи / Pompeii (2014) HDTV 1080i | Трейлер скачать через торрент бесплатно




    Помпеи / Pompeii (2014) HDTV 1080i | Трейлер скачать через торрент бесплатно

    Опубликовал: Админ | Дата: 27-02-2015, 11:10 | Просмотров: 689

    Некоторые истории пишутся кровью


    Создали в: 2014
    Создали в: США, Германия / Constantin Film Produktion, Don Carmody Productions, FilmDistrict
    Категория жанра: Боевик, драма, мелодрама, приключения
    Перевод текста: Дублированный
    Язык: Русский

    Главный режиссер: Пол У. С. Андерсон
    Актеры: Эмили Браунинг, Кит Харингтон, Кэрри-Энн Мосс, Пас Вега, Кифер Сазерленд, Адевале Акинойе-Агбаже, Джессика Лукас, Джаред Харрис, Саша Ройз, Карри Грэм

    Сюжет фильма:
    История любви раба Мило и благородной Кассии, обрученной с римским сенатором, на фоне извержения Везувия, которое навсегда стерло с лица земли древнеримский город Помпеи…

    Дата мировой премьеры: 19 февраля 2014
    Дата российской премьеры: 20 февраля 2014, Парадиз 3D


    Время просмотра: 00:02:27
    Качество фильма видео: HDTV 1080i

    Информация о видео: MPEG2, 1920x800, 40 Мбит/сек
    Информация о звуке: PCM 2.0, 1536 Кбит/сек Русский
    MediaInfo:
    Общее
    Полное имя : D:ВидеоPompeii (2014) HDTV 1080i (Трейлер).mpg
    Формат : MPEG-PS
    Размер файла : 745 Мбайт
    Продолжительность : 2 м. 27 с.
    Режим общего битрейта : Переменный
    Общий поток : 42,4 Мбит/сек
    Библиотека кодирования : Created by NeMpeg2Enc (2013-12-07T23-10-21)

    Видео
    Идентификатор : 224 (0xE0)
    Формат : MPEG Video
    Версия формата : Version 2
    Профиль формата : Main@Main
    Параметр BVOP формата : Да
    Параметр матрицы формата : По умолчанию
    Параметр GOP формата : M=3, N=12
    Продолжительность : 2 м. 27 с.
    Вид битрейта : Переменный
    Битрейт : 40,0 Мбит/сек
    Ширина : 1920 пикселей
    Высота : 800 пикселей
    Соотношение сторон : 2,2:1
    Частота кадров : 24,000 кадра/сек
    Цветовое пространство : YUV
    Субдискретизация насыщенности : 4:2:0
    Битовая глубина : 8 бит
    Тип развёртки : Чересстрочная
    Порядок развёртки : Верхнее поле первое
    Метод сжатия : С потерями
    Бит/(Пиксели*Кадры) : 1.085
    Временной код первого кадра : 00:00:00:00
    Оригинал временного кода : Group of pictures t_head
    Размер потока : 703 Мбайт (94%)
    Закодированный размер потока оригинала : Created by NeMpeg2Enc (2013-12-07T23-10-21)
    Библиотека кодирования : Created by NeMpeg2Enc (2013-12-07T23-10-21)

    Аудио
    Идентификатор : 189 (0xBD)-160 (0xA0)
    Формат : PCM
    Параметр Endianness формата : Big
    Параметр Sign формата : Signed
    Режим смешивания : DVD-Video
    Продолжительность : 2 м. 27 с.
    Вид битрейта : Постоянный
    Битрейт : 1536 Кбит/сек
    Каналы : 2 канала
    Частота : 48,0 КГц
    Битовая глубина : 16 бит
    Задержка видео : -43 мс.
    Размер потока : 26,9 Мбайт (4%)

    Скриншоты для ознакомления:

    Залил: Саша 1992
    Размер скачиваемого торрента: 744.62 MB (780789760 Bytes)

    Помпеи / Pompeii (2014) HDTV 1080i | Трейлер скачать через торрент бесплатно
    загрузка...
    Рейтинг →
     (голосов: 1, оценка 5/5, голосовать можно 1 раз )

    Другие торренты по теме:

  • Последние дни Помпеи / The last days of Pompeii (1959) DVDRip-AVC от Torrent-Xzona
  • Помпеи (2014) скачать через торрент бесплатно
  • Помпеи / Pompei (2007) BDRip | P
  • Помпеи / Pompeii (2014) CAMRip скачать через торрент бесплатно
  • OST - Помпеи / Pompeii (2014) MP3 скачать через торрент бесплатно
  • Помпеи: Апокалипсис / Apocalypse Pompeii (2014) HDRip | Sub
  • Помпеи / Pompeii (2014) TS *PROPER* скачать через торрент бесплатно
  • Помпеи: Апокалипсис / Apocalypse Pompeii (2014) BDRip 720p | L1 скачать через торрент бесплатно


    • Комментарии (0):

      Информация

      Информация

        Посетители, находящиеся в группе Гости, не могут оставлять комментарии в данной новости.

        ↓ Меню



        ↓ Опрос

        А Вы добавили сайт в закладки?
        Да
        Не


        Top 10 за месяц (Фильмы)