.
Авторизация | Регистрация
» » Поймай толстуху, если сможешь / Identity Thief (2013) BDRip-AVC | iPhone | A | Unrated Edition скачать через торрент бесплатно




    Поймай толстуху, если сможешь / Identity Thief (2013) BDRip-AVC | iPhone | A | Unrated Edition скачать через торрент бесплатно

    Опубликовал: Админ | Дата: 27-02-2015, 11:10 | Просмотров: 246



    Поймай толстуху, если сможешь / Identity Thief (2013) BDRip-AVC | iPhone | A | Unrated Edition

    Русское название: Поймай толстуху, если сможешь
    Русское название в мировом прокате: Identity Thief
    Создали в: 2013
    Категория жанра: комедия, криминал
    Главный режиссер: Сет Гордон
    Актеры: Джейсон Бейтман, Мелисса МакКарти, Аманда Пит, Роберт Патрик, Дженезис Родригез, Ти-Ай, Джон Фавро, Моррис Честнат, Джон Чо, Эрик Стоунстри

    Сюжет фильма:
    История о человеке, у которого украли документы, удостоверяющие его личность, и к чему это привело


    Снималось в: США
    Киностудия: Aggregate Films, DumbDumb, Stuber Productions
    Время просмотра: 02:00:30
    Перевод текста: Русский авторский (Д.Есарев)

    Файл
    Кодек для видео: H.264
    Качество фильма: BDRip-AVC 480p iPhone
    Информация о видео: 640x362@851x362 (2.35:1) at 23.976 fps, AVC at 1650 kbps
    Информация о звуке:
    1: 48 kHz, AAC 2.0, 160 kbps - Русский авторский (Д.Есарев)
    2: 48 kHz, AAC 2.0, 160 kbps - Английский
    Субтитры: Английские, Французские

    Media Info

    General
    Complete name : C:CREATE480outIdentity Thief.2013 (SD).m4v
    Format : MPEG-4
    Codec ID : M4V
    File size : 1.65 GiB
    Duration : 2h 0mn
    Overall bit rate mode : Variable
    Overall bit rate : 1 955 Kbps
    Movie name : Поймай толстуху, если сможешь
    Performer : Сет Гордон
    Genre : Comedy
    Recorded date : UTC 2013-02-08 08:00:00
    Encoded date : UTC 2014-02-11 18:50:15
    Tagged date : UTC 2014-02-12 13:48:00
    Copyright : Aggregate Films, DumbDumb, Stuber Productions
    Cover : Yes
    Comment : Is this the face of a thief?
    iTunEXTC : mpaa|Unrated|600|

    hdvd : 0
    stik : 9
    cnID : 633424864
    xid : Apple:vendor_id:2013-606698

    Video #1
    ID : 1
    Format : AVC
    Format/Info : Advanced Video Codec
    Format profile : Baseline@L3.0
    Format settings, CABAC : No
    Format settings, ReFrames : 2 frames
    Codec ID : avc1
    Codec ID/Info : Advanced Video Coding
    Duration : 2h 0mn
    Bit rate : 1 650 Kbps
    Maximum bit rate : 7 227 Kbps
    Width : 640 pixels
    Height : 362 pixels
    Display aspect ratio : 2.35:1
    Frame rate mode : Constant
    Frame rate : 23.976 fps
    Color space : YUV
    Chroma subsampling : 4:2:0
    Bit depth : 8 bits
    Scan type : Progressive
    Bits/(Pixel*Frame) : 0.297
    Stream size : 1.39 GiB (84%)
    Title : Identity Thief _2013_
    Writing library : x264 core 140 r2377 40 929f149 tMod 8-bit@4:2:0 X86_64
    Encoding settings : cabac=0 / ref=2 / deblock=1:-2:-2 / analyse=0x1:0x131 / me=umh / subme=7 / psy=1 / fade_compensate=1.00 / psy_rd=1.05:0.10 / mixed_ref=1 / me_range=32 / chroma_me=1 / trellis=2 / 8x8dct=0 / cqm=0 / deadzone=21,11 / fast_pskip=0 / chroma_qp_offset=-3 / threads=12 / lookahead_threads=2 / sliced_threads=0 / nr=0 / decimate=0 / interlaced=0 / bluray_compat=0 / constrained_intra=0 / fgo=0 / bframes=0 / weightp=0 / keyint=250 / keyint_min=23 / scenecut=40 / intra_refresh=0 / rc_lookahead=120 / rc=2pass / mbtree=1 / bitrate=1650 / ratetol=1.0 / qcomp=0.65 / qpmin=0:0:0 / qpmax=69:69:69 / qpstep=4 / cplxblur=20.0 / qblur=0.5 / vbv_maxrate=5000 / vbv_bufsize=5000 / nal_hrd=none / filler=0 / ip_ratio=1.35 / aq=4:0.80 / aq-sensitivity=10.00 / aq-factor=1.00:1.00:1.00 / aq2=0 / aq3=0
    Language : English
    Encoded date : UTC 2014-02-11 18:50:15
    Tagged date : UTC 2014-02-11 18:50:53
    Matrix coefficients : BT.709

    Video #2
    ID : 7
    Format : JPEG
    Codec ID : jpeg
    Duration : 2h 0mn
    Bit rate mode : Variable
    Bit rate : 832 bps
    Width : 640 pixels
    Height : 272 pixels
    Display aspect ratio : 2.35:1
    Frame rate mode : Variable
    Frame rate : 0.003 fps
    Minimum frame rate : 0.002 fps
    Maximum frame rate : 3.876 fps
    Color space : YUV
    Chroma subsampling : 4:2:0
    Bit depth : 8 bits
    Compression mode : Lossy
    Bits/(Pixel*Frame) : 1.593
    Stream size : 711 KiB (0%)
    Language : English
    Encoded date : UTC 2014-02-12 13:47:56
    Tagged date : UTC 2014-02-12 13:47:57

    Audio #1
    ID : 2
    Format : AAC
    Format/Info : Advanced Audio Codec
    Format profile : LC
    Codec ID : 40
    Duration : 2h 0mn
    Bit rate mode : Variable
    Bit rate : 144 Kbps
    Maximum bit rate : 227 Kbps
    Channel(s) : 2 channels
    Channel positions : Front: L R
    Sampling rate : 48.0 KHz
    Compression mode : Lossy
    Stream size : 126 MiB (7%)
    Title : AVO
    Language : Russian
    Encoded date : UTC 2014-02-11 18:41:09
    Tagged date : UTC 2014-02-11 18:50:53

    Audio #2
    ID : 3
    Format : AAC
    Format/Info : Advanced Audio Codec
    Format profile : LC
    Codec ID : 40
    Duration : 2h 0mn
    Bit rate mode : Variable
    Bit rate : 153 Kbps
    Maximum bit rate : 227 Kbps
    Channel(s) : 2 channels
    Channel positions : Front: L R
    Sampling rate : 48.0 KHz
    Compression mode : Lossy
    Stream size : 132 MiB (8%)
    Title : Original
    Language : English
    Encoded date : UTC 2014-02-11 18:46:51
    Tagged date : UTC 2014-02-11 18:50:53

    Text #1
    ID : 4
    Format : Timed Text
    Muxing mode : sbtl
    Codec ID : tx3g
    Duration : 2h 0mn
    Bit rate mode : Variable
    Bit rate : 85 bps
    Stream size : 75.1 KiB (0%)
    Title : Subtitle English
    Language : English
    Encoded date : UTC 2014-02-11 18:50:53
    Tagged date : UTC 2014-02-11 18:50:53

    Text #2
    ID : 5
    Format : Timed Text
    Muxing mode : sbtl
    Codec ID : tx3g
    Duration : 2h 0mn
    Bit rate mode : Variable
    Bit rate : 80 bps
    Stream size : 70.2 KiB (0%)
    Title : Subtitle French
    Language : French
    Encoded date : UTC 2014-02-11 18:50:53
    Tagged date : UTC 2014-02-11 18:50:53

    Menu
    ID : 6
    Codec ID : text
    Duration : 2h 0mn
    Language : English
    Encoded date : UTC 2014-02-11 18:52:29
    Tagged date : UTC 2014-02-11 18:52:29
    Bit rate mode : VBR

    iTunes Meta Tags

    Sort Name: Identity Thief (Unrated)
    XID: Apple:vendor_id:2013-606698
    contentID: 633424864
    Copyright: Aggregate Films, DumbDumb, Stuber Productions
    Screenwriters: Крэйг Мазин, Джерри Итен
    Producers: Памела Эбди, Джейсон Бейтман, Скотт Стубер
    Director: Seth Gordon
    Cast: Джейсон Бейтман, Мелисса МакКарти, Аманда Пит, Роберт Патрик, Дженезис Родригез, Ти-Ай, Джон Фавро, Моррис Честнат, Джон Чо, Эрик Стоунстрит
    Studio: Aggregate Films, DumbDumb, Stuber Productions
    Rating: 0
    Long Deion: История о человеке, у которого украли документы, удостоверяющие его личность, и к чему это привело.
    Deion: История о человеке, у которого украли документы, удостоверяющие его личность, и к чему это привело.
    Release Date: 2013-02-08T08:00:00Z
    Genre: Comedy
    Comments: Is this the face of a thief?
    Artist: Сет Гордон
    Name: Поймай толстуху, если сможешь
    x264 Log

    x264 info: frame I:2647 Avg QP:17.19 size: 31351
    x264 info: frame P:170716 Avg QP:19.80 size: 8235
    x264 info: mb I I16..4: 28.2% 0.0% 71.8%
    x264 info: mb P I16..4: 1.4% 0.0% 1.5% P16..4: 50.0% 17.7% 9.5% 1.8% 0.9% skip:17.2%
    x264 info: coded y,uvDC,uvAC intra: 57.0% 69.5% 45.0% inter: 37.8% 38.1% 20.9%
    x264 info: i16 v,h,dc,p: 43% 17% 9% 31%
    x264 info: i4 v,h,dc,ddl,ddr,vr,hd,vl,hu: 31% 16% 14% 6% 7% 9% 6% 7% 4%
    x264 info: i8c dc,h,v,p: 50% 16% 27% 8%
    x264 info: ref P L0: 76.5% 23.5%
    x264 info: kb/s:1647.24
    Скриншоты для ознакомления




    Залил: gekka
    Размер скачиваемого торрента: 1.65 GB (1766673649 Bytes)

    Поймай толстуху, если сможешь / Identity Thief (2013) BDRip-AVC | iPhone | A | Unrated Edition скачать через торрент бесплатно
    загрузка...
    Рейтинг →
     (голосов: 1, оценка 3/5, голосовать можно 1 раз )

    Другие торренты по теме:

  • Романоff М. - Как поймать ее в Сети (2007) PDF торрент скачать бесплатно
  • OST - Поймай толстуху, если сможешь / Identity Thief (2013) MP3 от Kulemina - Generalfilm торрент скачать бесплатно
  • Поймай толстуху, если сможешь / Identity Thief (2013) WEBRip | Звук с TS торрент скачать бесплатно
  • Поймай меня, если сможешь / Catch Me If You Can (2002) BDRip 1080p торрент скачать бесплатно
  • Беги за мной, чтоб я тебя поймала / Cours apres moi que je tattrape (1976) DVDRip от Brazzass торрент скачать бесплатно
  • Поймай толстуху, если сможешь / Identity Thief (2013) HDRip от Youtracker | Театральная версия торрент скачать бесплатно
  • Discovery: Поймать лжеца / Discovery: Catch A Liar (2009) HDTVRip-AVC от -=HD-NET=- торрент скачать бесплатно
  • Анжелика Уивер: Поймай меня, когда сможешь. Коллекционное издание (2013) PC торрент скачать бесплатно


    • Комментарии (0):

      Информация

      Информация

        Посетители, находящиеся в группе Гости, не могут оставлять комментарии в данной новости.

        ↓ Меню



        ↓ Опрос

        А Вы добавили сайт в закладки?
        Да
        Не


        Top 10 за неделю (Фильмы)