.
Авторизация | Регистрация
Хочешь лучшие торренты? Добавь свой email!
Добавить
» » Магия, магия / Magic Magic (2013) WEB-DL 720p от CINEMANIA | BaibaKo скачать через торрент бесплатно




    Магия, магия / Magic Magic (2013) WEB-DL 720p от CINEMANIA | BaibaKo скачать через торрент бесплатно

    Опубликовал: Админ | Дата: 27-02-2015, 11:10 | Просмотров: 256



    Детально о кино
    Русское название: Магия, магия
    Русское название в мировом прокате: Magic Magic
    Создали в: 2013
    Категория жанра: триллер
    Главный режиссер: Себастьян Сильва
    Актеры: Джуно Темпл, Эмили Браунинг, Майкл Сера, Каталина Сандино Морено, Аугусто Силва, Луис Дубо, Роксана Нараньо, Лоренца Айяпан, Джон Карлос Уэнчунао, Райен Аликинтуй

    Сюжет фильма:
    Алисия и её лучшая подруга Сара путешествуют по отдалённым местам Чили вместе с парнем Сары, его сестрой и их чудаковатым приятелем Бринком. Алисия страдает от бессонницы и постепенно начинает сходить с ума. Границы реальности и вымысла становятся для неё всё более размытыми. После того, как Сара внезапно возвращается в Сантьяго, состояние Алисии ещё больше ухудшается. Кошмар наяву продолжается и последняя надежда остается только на друзей. Однако будут ли они для Алисии спасением или же приведут её к гибели?



    Снималось в: Чили, США
    Время просмотра: 01:38:00
    Тип перевода: Профессиональное (многоголосое) BaibaKo

    Файл
    Тип видео: MKV
    Качество фильма: WEB-DL 720p fiend
    Информация о видео: 3868 kb/s, 1280x530
    Информация о звуке: Russian: AC3, 192 kb/s (2 ch) / English: AC3, 384 kb/s (6 ch)
    Субтитры: English
    Дополнительно: Сохранены оригинальные чаптеры как на Blu-ray
    Размер скачиваемого торрента: 3.11 Gb
    Скачать: Сэмпл

    Релиз группы:



    NFO
    Общее
    Magic.Magic.2013.WEB-DL.720p.CINEMANIA.mkv
    Формат : Matroska
    Версия формата : Version 4 / Version 2
    Размер файла : 3,11 Гбайт
    Продолжительность : 1 ч. 38 м.
    Общий поток : 4535 Кбит/сек
    Название фильма : Release Group CINEMANIA
    Дата кодирования : UTC 2014-02-11 22:04:31
    Программа кодирования : mkvmerge v6.7.0 (;Back to the Ground;) 64bit built on Jan 8 2014 15:10:52
    Библиотека кодирования : libebml v1.3.0 libmatroska v1.4.1

    Видео
    Идентификатор : 1
    Формат : AVC
    Формат/Информация : Advanced Video Codec
    Профиль формата : Main@L3.1
    Параметр CABAC формата : Нет
    Параметр ReFrames формата : 2 кадра
    Идентификатор кодека : V_MPEG4/ISO/AVC
    Продолжительность : 1 ч. 38 м.
    Битрейт : 3868 Кбит/сек
    Ширина : 1280 пикселей
    Высота : 530 пикселей
    Соотношение сторон : 2,40:1
    Режим частоты кадров : Постоянный
    Частота кадров : 23,976 кадра/сек
    Цветовое пространство : YUV
    Субдискретизация насыщенности : 4:2:0
    Битовая глубина : 8 бит
    Тип развёртки : Прогрессивная
    Бит/(Пиксели*Кадры) : 0.238
    Размер потока : 2,65 Гбайт (85%)
    Заголовок : Release Group CINEMANIA
    Язык : English
    Default : Да
    Forced : Нет
    Основные цвета : BT.709
    Характеристики трансфера : BT.709
    Коэффициенты матрицы : BT.709

    Аудио #1
    Идентификатор : 2
    Формат : AC-3
    Формат/Информация : Audio Coding 3
    Расширение режима : CM (complete main)
    Параметр Endianness формата : Big
    Идентификатор кодека : A_AC3
    Продолжительность : 1 ч. 38 м.
    Вид битрейта : Постоянный
    Битрейт : 192 Кбит/сек
    Каналы : 2 канала
    Расположение каналов : Front: L R
    Частота : 48,0 КГц
    Битовая глубина : 16 бит
    Метод сжатия : С потерями
    Размер потока : 135 Мбайт (4%)
    Заголовок : BaibaKo
    Язык : Russian
    Default : Да
    Forced : Да

    Аудио #2
    Идентификатор : 3
    Формат : AC-3
    Формат/Информация : Audio Coding 3
    Расширение режима : CM (complete main)
    Параметр Endianness формата : Big
    Идентификатор кодека : A_AC3
    Продолжительность : 1 ч. 38 м.
    Вид битрейта : Постоянный
    Битрейт : 384 Кбит/сек
    Каналы : 6 каналов
    Расположение каналов : Front: L C R, Side: L R, LFE
    Частота : 48,0 КГц
    Битовая глубина : 16 бит
    Метод сжатия : С потерями
    Размер потока : 269 Мбайт (8%)
    Язык : English
    Default : Нет
    Forced : Нет

    Текст
    Идентификатор : 4
    Формат : UTF-8
    Идентификатор кодека : S_TEXT/UTF8
    Идентификатор кодека/Информация : UTF-8 Plain Text
    Язык : English
    Default : Нет
    Forced : Нет

    Меню
    00:00:00.000 : en:1
    00:05:00.000 : en:2
    00:09:07.000 : en:3
    00:14:04.000 : en:4
    00:18:17.000 : en:5
    00:22:43.000 : en:6
    00:31:37.000 : en:7
    00:34:36.000 : en:8
    00:40:16.000 : en:9
    00:45:07.000 : en:10
    00:53:19.000 : en:11
    00:59:44.000 : en:12
    01:06:46.000 : en:13
    01:13:47.000 : en:14
    01:19:16.000 : en:15
    01:25:36.000 : en:16


    Залил: DGEKIGAN
    Размер скачиваемого торрента: 3.11 GB (3335736188 Bytes)

    Магия, магия / Magic Magic (2013) WEB-DL 720p от CINEMANIA | BaibaKo скачать через торрент бесплатно
    загрузка...
    Рейтинг →
     (голосов: 1, оценка 3/5, голосовать можно 1 раз )

    Другие торренты по теме:

  • Магия взаимоотношений (2009) DVD5
  • Магия удачи (2009) DVD5
  • Электронные выкройки Redcafe: Burda (Бурда) № 7 / 2010 – Белая магия. (2013) PC
  • Белая магия - Вспоминай меня (1991) FLAC
  • Нам и не снилось. Темная магия золота (2013) SATRip
  • Нам и не снилось. Деревенская магия (2013) SATRip
  • Антология - Магия фэнтези издательства Альфа-книга (2004-2013) FB2 от Youtracker
  • Тайные знаки. Странные явления. Магия чисел (2011) SATRip от Generalfilm


    • Комментарии (0):

      Информация

      Информация

        Посетители, находящиеся в группе Гости, не могут оставлять комментарии в данной новости.

        ↓ Меню



        ↓ Опрос

        А Вы добавили сайт в закладки?
        Да
        Не


        Top 10 за месяц (Фильмы)