.
Авторизация | Регистрация
» » Довольно слов / Enough Said (2013) Blu-Ray Remux 1080p от NovaLan торрент скачать бесплатно




    Довольно слов / Enough Said (2013) Blu-Ray Remux 1080p от NovaLan торрент скачать бесплатно

    Опубликовал: Админ | Дата: 27-02-2015, 11:10 | Просмотров: 323



    Русское название: Довольно слов
    Русское название в мировом прокате: Enough Said
    Создали в: 2013
    Категория жанра: Драма
    Главный режиссер: Николь Холофсенер
    Актеры: Джулия Луис-Дрейфус, Джеймс Гандольфини, Кэтрин Кинер, Тони Коллетт, Бен Фэлкуон, Ленни Лофтин, Джессика Ст. Клер, Кристофер Николас Смит, Трэйси Фэирэуэй, Михаэлла Уоткинс
    Сюжет фильма:
    Ева развелась и столкнулась со сложным моментом в жизни — что делать дальше? Она знакомится с другим обаятельным мужчиной, который оказывается бывшим мужем женщины, которая всегда была для нее идеалом.


    Снималось в: США, Fox Searchlight Pictures
    Время просмотра: 01:32:59
    Перевод текста: Профессиональный многоголосый (Лицензия)

    Кодек для видео: H.264
    Качество фильма: Blu-Ray Remux 1080p
    Информация о видео: MPEG-4 AVC, 33.8 Мбит/с, 1920x1080, 23.976 кадр/с
    Информация о звуке: Русский (DTS, 6 ch, 755 Кбит/с), английский (DTS-MA, 6 ch, 1561 Кбит/с), французский (DTS, 6 ch, 755 Кбит/с), английский (AC3, 6 ch, 448 Кбит/с)
    Субтитры: Русские, английские, французские

    Инфо-файл

    Полное имя : E:Раздачи_EEnough.Said.2013.BDRemux.1080p.NovaLan.mkv
    Формат : Matroska
    Версия формата : Version 4 / Version 2
    Размер файла : 24,7 Гбайт
    Продолжительность : 1 ч. 32 м.
    Режим общего битрейта : Переменный
    Общий поток : 38,0 Мбит/сек
    Название фильма : Enough Said 2013 - NovaLan
    Дата кодирования : UTC 2014-02-13 20:22:01
    Программа кодирования : mkvmerge v6.7.0 (;Back to the Ground;) 64bit built on Jan 8 2014 15:10:52
    Библиотека кодирования : libebml v1.3.0 libmatroska v1.4.1

    Видео
    Идентификатор : 1
    Формат : AVC
    Формат/Информация : Advanced Video Codec
    Профиль формата : High@L4.1
    Параметр CABAC формата : Да
    Параметр ReFrames формата : 4 кадра
    Идентификатор кодека : V_MPEG4/ISO/AVC
    Продолжительность : 1 ч. 32 м.
    Вид битрейта : Переменный
    Битрейт : 33,8 Мбит/сек
    Максимальный битрейт : 35,0 Мбит/сек
    Ширина : 1920 пикселей
    Высота : 1080 пикселей
    Соотношение сторон : 16:9
    Частота кадров : 23,976 кадра/сек
    Цветовое пространство : YUV
    Субдискретизация насыщенности : 4:2:0
    Битовая глубина : 8 бит
    Тип развёртки : Прогрессивная
    Бит/(Пиксели*Кадры) : 0.679
    Размер потока : 21,9 Гбайт (89%)
    Заголовок : Enough Said 2013 - NovaLan
    Default : Да
    Forced : Нет

    Аудио #1
    Идентификатор : 2
    Формат : DTS
    Формат/Информация : Digital Theater Systems
    Идентификатор кодека : A_DTS
    Продолжительность : 1 ч. 32 м.
    Вид битрейта : Постоянный
    Битрейт : 755 Кбит/сек
    Каналы : 6 каналов
    Расположение каналов : Front: L C R, Side: L R, LFE
    Частота : 48,0 КГц
    Битовая глубина : 24 бит
    Метод сжатия : С потерями
    Размер потока : 502 Мбайт (2%)
    Язык : Russian
    Default : Да
    Forced : Нет

    Аудио #2
    Идентификатор : 3
    Формат : DTS
    Формат/Информация : Digital Theater Systems
    Профиль формата : MA / Core
    Идентификатор кодека : A_DTS
    Продолжительность : 1 ч. 32 м.
    Вид битрейта : Переменный
    Битрейт : 1561 Кбит/сек / 1510 Кбит/сек
    Каналы : 6 каналов
    Расположение каналов : Front: L C R, Side: L R, LFE
    Частота : 48,0 КГц
    Битовая глубина : 24 бит
    Метод сжатия : Без потерь / Lossy
    Язык : English
    Default : Нет
    Forced : Нет

    Аудио #3
    Идентификатор : 4
    Формат : DTS
    Формат/Информация : Digital Theater Systems
    Идентификатор кодека : A_DTS
    Продолжительность : 1 ч. 32 м.
    Вид битрейта : Постоянный
    Битрейт : 755 Кбит/сек
    Каналы : 6 каналов
    Расположение каналов : Front: L C R, Side: L R, LFE
    Частота : 48,0 КГц
    Битовая глубина : 24 бит
    Метод сжатия : С потерями
    Размер потока : 502 Мбайт (2%)
    Язык : French
    Default : Нет
    Forced : Нет

    Аудио #4
    Идентификатор : 5
    Формат : AC-3
    Формат/Информация : Audio Coding 3
    Расширение режима : CM (complete main)
    Параметр Endianness формата : Big
    Идентификатор кодека : A_AC3
    Продолжительность : 1 ч. 32 м.
    Вид битрейта : Постоянный
    Битрейт : 448 Кбит/сек
    Каналы : 6 каналов
    Расположение каналов : Front: L C R, Side: L R, LFE
    Частота : 48,0 КГц
    Битовая глубина : 16 бит
    Метод сжатия : С потерями
    Размер потока : 298 Мбайт (1%)
    Язык : English
    Default : Нет
    Forced : Нет

    Текст #1
    Идентификатор : 6
    Формат : PGS
    Режим смешивания : zlib
    Идентификатор кодека : S_HDMV/PGS
    Идентификатор кодека/Информация : The same subtitle format used on BDs/HD-DVDs
    Язык : Russian
    Default : Да
    Forced : Нет

    Текст #2
    Идентификатор : 7
    Формат : PGS
    Режим смешивания : zlib
    Идентификатор кодека : S_HDMV/PGS
    Идентификатор кодека/Информация : The same subtitle format used on BDs/HD-DVDs
    Язык : English
    Default : Нет
    Forced : Нет

    Текст #3
    Идентификатор : 8
    Формат : PGS
    Режим смешивания : zlib
    Идентификатор кодека : S_HDMV/PGS
    Идентификатор кодека/Информация : The same subtitle format used on BDs/HD-DVDs
    Язык : French
    Default : Нет
    Forced : Нет

    Меню
    00:00:00.000 : en:Chapter 1
    00:02:45.999 : en:Chapter 2
    00:07:17.145 : en:Chapter 3
    00:11:07.458 : en:Chapter 4
    00:16:07.132 : en:Chapter 5
    00:18:04.208 : en:Chapter 6
    00:20:06.663 : en:Chapter 7
    00:26:21.413 : en:Chapter 8
    00:28:43.471 : en:Chapter 9
    00:30:44.467 : en:Chapter 10
    00:32:58.434 : en:Chapter 11
    00:35:34.172 : en:Chapter 12
    00:41:21.478 : en:Chapter 13
    00:44:06.477 : en:Chapter 14
    00:47:11.286 : en:Chapter 15
    00:49:23.001 : en:Chapter 16
    00:54:15.835 : en:Chapter 17
    00:57:41.374 : en:Chapter 18
    00:59:11.839 : en:Chapter 19
    01:02:03.970 : en:Chapter 20
    01:08:48.499 : en:Chapter 21
    01:11:40.212 : en:Chapter 22
    01:14:36.138 : en:Chapter 23
    01:16:12.442 : en:Chapter 24
    01:20:19.939 : en:Chapter 25
    01:23:41.015 : en:Chapter 26
    01:26:50.914 : en:Chapter 27
    01:30:26.212 : en:Chapter 28
    01:32:59.365 : en:Chapter 29

    Релиз группа NovaLan
    Автор сборки Sergei7721






    Релиз подготовил:


    Залил: Sergei7721
    Размер скачиваемого торрента: 24.71 GB (26537257147 Bytes)

    Довольно слов / Enough Said (2013) Blu-Ray Remux 1080p от NovaLan торрент скачать бесплатно
    загрузка...
    Рейтинг →
     (голосов: 1, оценка 4/5, голосовать можно 1 раз )

    Другие торренты по теме:

  • Довольно слов / Enough Said (2013) BDRip 720p от Hot-Film | iTunes торрент скачать бесплатно
  • Довольно слов / Enough Said (2013) HDRip | iTunes торрент скачать бесплатно
  • Довольно слов / Enough Said (2013) BDRip-AVC от HELLYWOOD | iTunes скачать через торрент бесплатно
  • Довольно слов / Enough Said (2013) BDRemux 1080p от GORESEWAGE | iTunes Russia торрент скачать бесплатно
  • Довольно слов / Enough Said (2013) BDRemux 1080p от ExKinoRay | P | Лицензия торрент скачать бесплатно
  • Довольно слов / Enough Said (2013) BDRip 720p | Лицензия торрент скачать бесплатно
  • Довольно слов / Enough Said (2013) BDRip 1080p | Лицензия торрент скачать бесплатно
  • Довольно слов / Enough Said (2013) HDRip | Лицензия торрент скачать бесплатно


    • Комментарии (0):

      Информация

      Информация

        Посетители, находящиеся в группе Гости, не могут оставлять комментарии в данной новости.

        ↓ Меню



        ↓ Опрос

        А Вы добавили сайт в закладки?
        Да
        Не


        Top 10 за неделю (Фильмы)