.
Авторизация | Регистрация
Хочешь лучшие торренты? Добавь свой email!
Добавить
» » 300 спартанцев: Расцвет империи / 300: Rise of an Empire (2014) 1080p HDTVRip | Трейлер торрент скачать бесплатно




    300 спартанцев: Расцвет империи / 300: Rise of an Empire (2014) 1080p HDTVRip | Трейлер торрент скачать бесплатно

    Опубликовал: Админ | Дата: 27-02-2015, 11:10 | Просмотров: 757

    Смерти вопреки



    Создали в: 2014
    Создали в: США / Atmosphere Entertainment MM, Cruel Unusual Films, Hollywood Gang Productions, Legendary Pictures, . Pictures
    Категория жанра: Боевик, драма, военный
    Перевод текста: Дублированный

    Главный режиссер: Ноам Мурро
    Продюсеры: Марк Кантон, Берни Голдманн, Джанни Нуннари
    Актеры: Салливан Степлтон, Ева Грин, Лина Хиди, Ганс Мэтисон, Родриго Санторо, Джек О’Коннелл, Дэвид Уэнэм, Скотт Берн, Кэйтлин Кармайкл, Каллэн Мулвей

    Сюжет фильма:
    После победы над царем Леонидом персидская армия во главе с Ксерксом движется на север. На её пути оказывается флот Афин под руководством адмирала Фемистокла. Силы противников не равны, и Фемистокл вынужден вступить в союз с заклятым врагом афинского государства Спартой. Только объединившись у враждующих полисов-государств есть шанс что-то противопоставить могущественному Ксерксу.
    Дата мировой премьеры: 5 марта 2014
    Дата российской премьеры: 6 марта 2014 , Каро-Премьер 3D IMAX
    Дата выхода Blu-Ray/DVD релиза: 10 июля 2014, CP Дистрибуция

    Время просмотра: 00:02:26
    Качество фильма видео: HDTVRip 1080p

    Информация о видео: MPEG-4 AVC, 1920х1080, 8827 Кбит/сек
    Информация о звуке: AAC 2.0, 192 Кбит/сек Русский
    MediaInfo:
    Общее
    Полное имя : D:Видео300 an Empire (2014) 1080p HDTVRip (Трейлер).mov
    Формат : MPEG-4
    Профиль формата : QuickTime
    Идентификатор кодека : qt
    Размер файла : 157 Мбайт
    Продолжительность : 2 м. 26 с.
    Общий поток : 9020 Кбит/сек
    Дата кодирования : UTC 2014-01-17 18:18:15
    Дата пометки : UTC 2014-01-17 18:18:18
    Библиотека кодирования : Apple QuickTime

    Видео
    Идентификатор : 1
    Формат : AVC
    Формат/Информация : Advanced Video Codec
    Профиль формата : Main@L4.0
    Параметр CABAC формата : Нет
    Параметр ReFrames формата : 2 кадра
    Идентификатор кодека : avc1
    Идентификатор кодека/Информация : Advanced Video Coding
    Продолжительность : 2 м. 26 с.
    Битрейт : 8827 Кбит/сек
    Ширина : 1920 пикселей
    Высота : 1080 пикселей
    Соотношение сторон : 16:9
    Режим частоты кадров : Постоянный
    Частота кадров : 25,000 кадров/сек
    Цветовое пространство : YUV
    Субдискретизация насыщенности : 4:2:0
    Битовая глубина : 8 бит
    Тип развёртки : Прогрессивная
    Бит/(Пиксели*Кадры) : 0.170
    Размер потока : 154 Мбайт (98%)
    Язык : English
    Дата кодирования : UTC 2014-01-17 18:10:25
    Дата пометки : UTC 2014-01-17 18:18:18
    Основные цвета : BT.709
    Характеристики трансфера : BT.709
    Коэффициенты матрицы : BT.709

    Аудио
    Идентификатор : 2
    Формат : AAC
    Формат/Информация : Advanced Audio Codec
    Профиль формата : LC
    Идентификатор кодека : 40
    Продолжительность : 2 м. 26 с.
    Вид битрейта : Постоянный
    Битрейт : 192 Кбит/сек
    Каналы : 2 канала
    Расположение каналов : Front: L R
    Частота : 48,0 КГц
    Метод сжатия : С потерями
    Размер потока : 3,35 Мбайт (2%)
    Язык : English
    Дата кодирования : UTC 2014-01-17 18:10:25
    Дата пометки : UTC 2014-01-17 18:18:18


    Скриншоты для ознакомления:

    Залил: Саша 1992
    Размер скачиваемого торрента: 157.38 MB (165023295 Bytes)

    300 спартанцев: Расцвет империи / 300: Rise of an Empire (2014) 1080p HDTVRip | Трейлер торрент скачать бесплатно
    загрузка...
    Рейтинг →
     (голосов: 1, оценка 3/5, голосовать можно 1 раз )

    Другие торренты по теме:

  • 300 спартанцев / 300 (2006) BDRip-AVC | iPad
  • 300 спартанцев / 300 (2006) BDRip 720p от IIIKOJIO3ABP
  • OST - 300 спартанцев: Расцвет империи / 300: Rise of an Empire (2014) MP3 скачать через торрент бесплатно
  • 300 спартанцев: Расцвет империи / 300: Rise of an Empire (2014) CAMRip скачать через торрент бесплатно
  • 300 спартанцев: Расцвет империи / 300: Rise of an Empire (2014) CAMRip *PROPER*
  • 300 спартанцев: Расцвет империи / 300: Rise of an Empire (2014) WEBRip | Звук с CAMRip скачать через торрент бесплатно
  • 300 спартанцев / The 300 Spartans (1962) HDRip от ExKinoRay | D, P, А скачать через торрент бесплатно
  • 300 спартанцев / The 300 Spartans (1962) HDRip-AVC от ExKinoRay | D, P, А


    • Комментарии (0):

      Информация

      Информация

        Посетители, находящиеся в группе Гости, не могут оставлять комментарии в данной новости.

        ↓ Меню



        ↓ Опрос

        А Вы добавили сайт в закладки?
        Да
        Не


        Top 10 за месяц (Фильмы)