.
Авторизация | Регистрация
Хочешь лучшие торренты? Добавь свой email!
Добавить
» » Ип Ман: Рождение легенды / The Legend Is Born: Yip Man / Yip Man chinchyun (2010) BDRip-AVC | iPhone | P1 торрент скачать бесплатно




    Ип Ман: Рождение легенды / The Legend Is Born: Yip Man / Yip Man chinchyun (2010) BDRip-AVC | iPhone | P1 торрент скачать бесплатно

    Опубликовал: Админ | Дата: 27-02-2015, 11:10 | Просмотров: 317



    Ип Ман: Рождение легенды / The Legend Is Born: Yip Man (2010) BDRip-AVC | iPhone | P1

    Русское название: Ип Ман: Рождение легенды
    Русское название в мировом прокате: The Legend Is Born: Yip Man
    Создали в: 2010
    Категория жанра: боевик, драма, биография, история
    Главный режиссер: Херман Яу
    Актеры: Ю-Ханг То, Фан Сю-Вонг, Саммо Хунг Кам-Бо, И Хуан, Роуз Чан, Ип Чун, Хинс Чунг, Вэй Геунг, Чен Зи Хуи, Сует Лам

    Сюжет фильма:
    В детстве Ип Ман вместе со своим братом Е Тяньцы и младшей ученицей Ли Мэйхуэй учился боевым искусствам у известного мастера вин-чун Чэнь Хуашуня в городе Фошань. Спустя несколько лет, мастер Чэнь Хуашунь умер, и Ип Ман продолжил обучение у старшего ученика Чэнь Хуашуня — Чжунсу. Затем Ип Ман отправился в Гонконг, чтобы продолжить обучение боевым искусствам, расставшись с Е Тяньцы, Ли Мэйхуэй и другими учениками. Во время обучения в Гонконге, Ип Ман часто сталкивался с оскорблениями и дискриминацией со стороны иностранцев…


    Снималось в: Гонконг
    Киностудия: нет данных
    Время просмотра: 01:39:42
    Перевод текста: Русский профессиональный одноголосый закадровый (CinemaSET)

    Файл
    Кодек для видео: H.264
    Качество фильма: HDRip-AVC 480p iPhone
    Информация о видео: 640x362@851x362 (2.35:1) at 23.976 fps, AVC at 1800 kbps
    Информация о звуке:
    1: 48 kHz, AAC 2.0, 180 kbps - Русский профессиональный одноголосый закадровый (CinemaSET)
    2: 48 kHz, AAC 2.0, 180 kbps - Китайский
    Субтитры: Русские, Английские

    Media Info

    General
    Complete name : C:CREATE480outYip Man - The Legend is Born.2010 (SD).m4v
    Format : MPEG-4
    Codec ID : M4V
    File size : 1.51 GiB
    Duration : 1h 39mn
    Overall bit rate mode : Variable
    Overall bit rate : 2 171 Kbps
    Movie name : Ип Ман: Рождение легенды
    Performer : Херман Яу
    Genre : Action Adventure
    Recorded date : UTC 2010-06-24 07:00:00
    Encoded date : UTC 2013-07-30 08:05:59
    Tagged date : UTC 2013-07-30 08:06:41
    Cover : Yes
    sonm : The Legend Is Born: Ip Man
    desc : В детстве Ип Ман вместе со своим братом Е Тяньцы и младшей ученицей Ли Мэйхуэй учился боевым искусствам у известного мастера вин-чун Чэнь Хуашуня в городе Фошань.
    ldes : В детстве Ип Ман вместе со своим братом Е Тяньцы и младшей ученицей Ли Мэйхуэй учился боевым искусствам у известного мастера вин-чун Чэнь Хуашуня в городе Фошань. Спустя несколько лет, мастер Чэнь Хуашунь умер, и Ип Ман продолжил обучение у старшего ученика Чэнь Хуашуня — Чжунсу. Затем Ип Ман отправился в Гонконг, чтобы продолжить обучение боевым искусствам, расставшись с Е Тяньцы, Ли Мэйхуэй и другими учениками. Во время обучения в Гонконге, Ип Ман часто сталкивался с оскорблениями и дискриминацией со стороны иностранцев…
    hdvd : 0
    stik : 9
    akID : -1
    sfID : 0
    cnID : 388648631
    xid : Apple:vendor_id:2010-512443
    iTunEXTC : uk-movie|12|300|

    Video
    ID : 1
    Format : AVC
    Format/Info : Advanced Video Codec
    Format profile : Baseline@L3.0
    Format settings, CABAC : No
    Format settings, ReFrames : 2 frames
    Codec ID : avc1
    Codec ID/Info : Advanced Video Coding
    Duration : 1h 39mn
    Bit rate : 1 800 Kbps
    Maximum bit rate : 8 646 Kbps
    Width : 640 pixels
    Height : 362 pixels
    Display aspect ratio : 2.35:1
    Frame rate mode : Constant
    Frame rate : 24.000 fps
    Color space : YUV
    Chroma subsampling : 4:2:0
    Bit depth : 8 bits
    Scan type : Progressive
    Bits/(Pixel*Frame) : 0.324
    Stream size : 1.25 GiB (83%)
    Title : Yip Man
    Writing library : x264 core 133 r2334 704 50 a7549b7 tMod 8-bit@4:2:0 X86_64
    Encoding settings : cabac=0 / ref=2 / deblock=1:-1:-1 / analyse=0x1:0x131 / me=tesa / subme=7 / psy=1 / fade_compensate=1.00 / psy_rd=1.05:0.10 / mixed_ref=1 / me_range=32 / chroma_me=1 / trellis=2 / 8x8dct=0 / cqm=0 / deadzone=21,11 / fast_pskip=0 / chroma_qp_offset=-3 / threads=12 / lookahead_threads=2 / sliced_threads=0 / nr=0 / decimate=0 / interlaced=0 / bluray_compat=0 / constrained_intra=0 / fgo=0 / bframes=0 / weightp=0 / keyint=250 / keyint_min=24 / scenecut=40 / intra_refresh=0 / rc_lookahead=120 / rc=2pass / mbtree=1 / bitrate=1800 / ratetol=1.0 / qcomp=0.70 / qpmin=0 / qpmax=69 / qpstep=4 / cplxblur=20.0 / qblur=0.5 / vbv_maxrate=5000 / vbv_bufsize=5000 / nal_hrd=none / ip_ratio=1.30 / aq=4:0.90 / aq-sensitivity=10.00 / aq-factor=1.00:1.00:1.00 / aq2=0 / aq3=0
    Language : English
    Encoded date : UTC 2013-07-30 08:05:59
    Tagged date : UTC 2013-07-30 08:06:20
    Matrix coefficients : BT.709

    Audio #1
    ID : 2
    Format : AAC
    Format/Info : Advanced Audio Codec
    Format profile : LC
    Codec ID : 40
    Duration : 1h 39mn
    Bit rate mode : Variable
    Bit rate : 179 Kbps
    Maximum bit rate : 224 Kbps
    Channel(s) : 2 channels
    Channel positions : Front: L R
    Sampling rate : 48.0 KHz
    Compression mode : Lossy
    Stream size : 127 MiB (8%)
    Title : AAC Russian VO (CinemaSET)
    Language : Russian
    Encoded date : UTC 2013-07-30 08:06:11
    Tagged date : UTC 2013-07-30 08:06:20

    Audio #2
    ID : 3
    Format : AAC
    Format/Info : Advanced Audio Codec
    Format profile : LC
    Codec ID : 40
    Duration : 1h 39mn
    Bit rate mode : Variable
    Bit rate : 192 Kbps
    Maximum bit rate : 226 Kbps
    Channel(s) : 2 channels
    Channel positions : Front: L R
    Sampling rate : 48.0 KHz
    Compression mode : Lossy
    Stream size : 134 MiB (9%)
    Title : AAC Chinese
    Language : English
    Encoded date : UTC 2013-07-30 08:06:15
    Tagged date : UTC 2013-07-30 08:06:20

    Text #1
    ID : 4
    Format : Timed Text
    Muxing mode : sbtl
    Codec ID : tx3g
    Duration : 1h 38mn
    Bit rate mode : Variable
    Bit rate : 92 bps
    Stream size : 65.8 KiB (0%)
    Title : Subtitle Russian
    Language : Russian
    Encoded date : UTC 2013-07-30 08:06:20
    Tagged date : UTC 2013-07-30 08:06:20

    Text #2
    ID : 5
    Format : Timed Text
    Muxing mode : sbtl
    Codec ID : tx3g
    Duration : 1h 37mn
    Bit rate mode : Variable
    Bit rate : 57 bps
    Stream size : 41.0 KiB (0%)
    Title : Subtitle English (full)
    Language : English
    Encoded date : UTC 2013-07-30 08:06:20
    Tagged date : UTC 2013-07-30 08:06:20

    Text #3
    ID : 6
    Format : Timed Text
    Muxing mode : sbtl
    Codec ID : tx3g
    Duration : 1h 38mn
    Bit rate mode : Variable
    Bit rate : 105 bps
    Stream size : 75.8 KiB (0%)
    Title : Subtitle English (comments)
    Language : English
    Encoded date : UTC 2013-07-30 08:06:20
    Tagged date : UTC 2013-07-30 08:06:20

    Menu
    ID : 7
    Codec ID : text
    Duration : 1h 39mn
    Encoded date : UTC 2013-07-30 08:06:35
    Tagged date : UTC 2013-07-30 08:06:35
    Bit rate mode : CBR
    iTunes Meta Tags

    Sort Name: The Legend Is Born: Ip Man
    XID: Apple:vendor_id:2010-512443
    Content ID: 388648631
    ScreenWriters: Эрика Ли, Шон Уитли
    Producers: Син Квок Лам, Куо Синг Ли
    Director: Herman Yau
    Cast: Ю-Ханг То, Фан Сю-Вонг, Саммо Хунг Кам-Бо, И Хуан, Роуз Чан, Ип Чун, Хинс Чунг, Вэй Геунг, Чен Зи Хуи, Сует Лам
    Rating: 12
    Long Deion: В детстве Ип Ман вместе со своим братом Е Тяньцы и младшей ученицей Ли Мэйхуэй учился боевым искусствам у известного мастера вин-чун Чэнь Хуашуня в городе Фошань. Спустя несколько лет, мастер Чэнь Хуашунь умер, и Ип Ман продолжил обучение у старшего ученика Чэнь Хуашуня — Чжунсу. Затем Ип Ман отправился в Гонконг, чтобы продолжить обучение боевым искусствам, расставшись с Е Тяньцы, Ли Мэйхуэй и другими учениками. Во время обучения в Гонконге, Ип Ман часто сталкивался с оскорблениями и дискриминацией со стороны иностранцев…
    Deion: В детстве Ип Ман вместе со своим братом Е Тяньцы и младшей ученицей Ли Мэйхуэй учился боевым искусствам у известного мастера вин-чун Чэнь Хуашуня в городе Фошань.
    Release Date: 2010-06-24T07:00:00Z
    Genre: Action Adventure
    Artist: Херман Яу
    Name: Ип Ман: Рождение легенды
    x264 Log

    x264 info: frame I:2825 Avg QP:15.66 size: 24269
    x264 info: frame P:140753 Avg QP:17.56 size: 9071
    x264 info: mb I I16..4: 25.5% 0.0% 74.5%
    x264 info: mb P I16..4: 1.6% 0.0% 4.2% P16..4: 45.9% 26.5% 11.4% 2.7% 0.9% skip: 6.8%
    x264 info: coded y,uvDC,uvAC intra: 70.5% 67.6% 45.0% inter: 50.8% 34.1% 22.1%
    x264 info: i16 v,h,dc,p: 43% 15% 7% 35%
    x264 info: i4 v,h,dc,ddl,ddr,vr,hd,vl,hu: 30% 16% 11% 6% 9% 9% 7% 8% 5%
    x264 info: i8c dc,h,v,p: 53% 14% 26% 7%
    x264 info: ref P L0: 79.4% 20.6%
    x264 info: kb/s:1799.08
    Скриншоты для ознакомления




    Залил: gekka
    Размер скачиваемого торрента: 1.51 GB (1623190967 Bytes)

    Ип Ман: Рождение легенды / The Legend Is Born: Yip Man / Yip Man chinchyun (2010) BDRip-AVC | iPhone | P1 торрент скачать бесплатно
    загрузка...
    Рейтинг →
     (голосов: 1, оценка 4/5, голосовать можно 1 раз )

    Другие торренты по теме:

  • Ип Ман: Последняя схватка / Ip Man: The Final Fight (2013) HDTVRip | P
  • Ип Ман: Трилогия / Ip Man: Trilogy (2008-2010) BDRip 1080p
  • Ип Ман: Последняя схватка / Ip Man: The Final Fight (2013) BDRip-AVC от ExKinoRay | P2
  • Ип Ман 2 / Ip Man 2 (2010) BDRip-AVC от ExKinoRay | P2
  • Ип Ман / Ip Man (2008) BDRip-AVC от ExKinoRay | P, P2, P1, A
  • Ип Ман: Рождение легенды / The Legend is Born: Ip Man (2010) BDRip-AVC от ExKinoRay | P2, P1
  • Ип Ман: Последняя схватка / Ip Man: The Final Fight (2013) HDRip от -=HD-NET=- | КПК | P2
  • Ип Ман / Yip Man / Ip Man (2008) BDRip 720p | Ger Transfer


    • Комментарии (0):

      Информация

      Информация

        Посетители, находящиеся в группе Гости, не могут оставлять комментарии в данной новости.

        ↓ Меню



        ↓ Опрос

        А Вы добавили сайт в закладки?
        Да
        Не


        Top 10 за месяц (Фильмы)