.
Авторизация | Регистрация
» » Starперцы / Last Vega (2013) HDRip-AVC | iPhone | P торрент скачать бесплатно




    Starперцы / Last Vega (2013) HDRip-AVC | iPhone | P торрент скачать бесплатно

    Опубликовал: Админ | Дата: 27-02-2015, 11:10 | Просмотров: 247



    Starперцы / Last Vegas (2013) HDRip-AVC | iPhone | P

    Русское название: Starперцы
    Русское название в мировом прокате: Last Vegas
    Создали в: 2013
    Категория жанра: комедия, драма
    Главный режиссер: Джон Тёртелтауб
    Актеры: Майкл Дуглас, Роберт Де Ниро, Морган Фриман, Кевин Клайн, Мэри Стинберген, Джерри Феррара, Романи Малко, Роджер Барт, Джоанна Глисон

    Сюжет фильма:
    Билли, Пэдди, Арчи и Сэм дружат больше полувека. И когда убежденный холостяк Билли наконец-то делает предложение своей юной подружке, великолепная четверка отправляется в Лас-Вегас, чтобы скинуть с себя груз прожитого и зажечь как в последний раз. Великовозрастные гуляки и не подозревают, как за десятилетия эволюционировал Город Грехов...


    Снималось в: США
    Киностудия: CBS Films, Gidden Media, Good Univers
    Время просмотра: 01:44:59
    Перевод текста: Русский профессиональный многоголосый закадровый Baibako

    Файл
    Кодек для видео: H.264
    Качество фильма: HDRip-AVC 480p iPhone
    Информация о видео: 640x356@851x356 (2.40:1) at 23.976 fps, AVC at 1600 kbps
    Информация о звуке:
    1: 48 kHz, AAC 2.0, 160 kbps - Русский профессиональный многоголосый закадровый Baibako
    2: 48 kHz, AAC 2.0, 160 kbps - Английский
    Субтитры: Английские

    Media Info

    General
    Complete name : C:CREATE480outLast Vegas.2013 (SD).m4v
    Format : MPEG-4
    Codec ID : M4V
    File size : 1.41 GiB
    Duration : 1h 45mn
    Overall bit rate mode : Variable
    Overall bit rate : 1 906 Kbps
    Movie name : Starперцы
    Performer : Jon Turteltaub
    Genre : Comedy
    Recorded date : UTC 2013-11-01 07:00:00
    Encoded date : UTC 2014-02-13 06:58:10
    Tagged date : UTC 2014-02-13 07:03:32
    Copyright : CBS Films, Gidden Media, Good Universe
    Cover : Yes
    Comment : Мы - легенда
    iTunEXTC : mpaa|PG-13|300|

    sonm : Last Vegas
    desc : Билли, Пэдди, Арчи и Сэм — четверка друзей не разлей вода с самого детства. Когда закоренелый холостяк Билли (Майкл Дуглас) наконец делает предложение своей молоденькой подружке, друзья решают отправиться на мальчишник в Лас-Вегас.
    ldes : Билли, Пэдди, Арчи и Сэм — четверка друзей не разлей вода с самого детства. Когда закоренелый холостяк Билли (Майкл Дуглас) наконец делает предложение своей молоденькой подружке, друзья решают отправиться на мальчишник не куда-нибудь, а конечно, в Лас-Вегас. Перед вами — Последний Мальчишник в Вегасе, только на этот раз без мальчишек. Это грандиозный голливудский мальчишник по-взрослому, где изменившийся до неузнаваемости за годы Лас-Вегас проверит дружбу героев на прочность самыми невообразимыми способами!
    hdvd : 0
    stik : 9
    cnID : 779516213
    xid : Apple:vendor_id:2013-468571

    Video
    ID : 1
    Format : AVC
    Format/Info : Advanced Video Codec
    Format profile : Baseline@L3.0
    Format settings, CABAC : No
    Format settings, ReFrames : 2 frames
    Codec ID : avc1
    Codec ID/Info : Advanced Video Coding
    Duration : 1h 44mn
    Bit rate : 1 600 Kbps
    Maximum bit rate : 7 040 Kbps
    Width : 640 pixels
    Height : 356 pixels
    Display aspect ratio : 2.40:1
    Frame rate mode : Constant
    Frame rate : 23.976 fps
    Color space : YUV
    Chroma subsampling : 4:2:0
    Bit depth : 8 bits
    Scan type : Progressive
    Bits/(Pixel*Frame) : 0.293
    Stream size : 1.17 GiB (83%)
    Title : Last Vegas _2013_
    Writing library : x264 core 140 r2377 40 929f149 tMod 8-bit@4:2:0 X86_64
    Encoding settings : cabac=0 / ref=2 / deblock=1:-2:-2 / analyse=0x1:0x131 / me=umh / subme=7 / psy=1 / fade_compensate=1.00 / psy_rd=1.05:0.15 / mixed_ref=1 / me_range=32 / chroma_me=1 / trellis=2 / 8x8dct=0 / cqm=0 / deadzone=21,11 / fast_pskip=0 / chroma_qp_offset=-3 / threads=12 / lookahead_threads=2 / sliced_threads=0 / nr=0 / decimate=0 / interlaced=0 / bluray_compat=0 / constrained_intra=0 / fgo=0 / bframes=0 / weightp=0 / keyint=250 / keyint_min=23 / scenecut=40 / intra_refresh=0 / rc_lookahead=120 / rc=2pass / mbtree=1 / bitrate=1600 / ratetol=1.0 / qcomp=0.70 / qpmin=0:0:0 / qpmax=69:69:69 / qpstep=4 / cplxblur=20.0 / qblur=0.5 / vbv_maxrate=5000 / vbv_bufsize=5000 / nal_hrd=none / filler=0 / ip_ratio=1.40 / aq=4:0.80 / aq-sensitivity=10.00 / aq-factor=1.00:1.00:1.00 / aq2=0 / aq3=0
    Language : English
    Encoded date : UTC 2014-02-13 06:58:10
    Tagged date : UTC 2014-02-13 06:58:39
    Matrix coefficients : BT.709

    Audio #1
    ID : 2
    Format : AAC
    Format/Info : Advanced Audio Codec
    Format profile : LC
    Codec ID : 40
    Duration : 1h 45mn
    Bit rate mode : Variable
    Bit rate : 151 Kbps
    Maximum bit rate : 237 Kbps
    Channel(s) : 2 channels
    Channel positions : Front: L R
    Sampling rate : 48.0 KHz
    Compression mode : Lossy
    Stream size : 114 MiB (8%)
    Title : MVO _Baibako_
    Language : Russian
    Encoded date : UTC 2014-02-13 06:51:11
    Tagged date : UTC 2014-02-13 06:58:39

    Audio #2
    ID : 3
    Format : AAC
    Format/Info : Advanced Audio Codec
    Format profile : LC
    Codec ID : 40
    Duration : 1h 45mn
    Bit rate mode : Variable
    Bit rate : 161 Kbps
    Maximum bit rate : 239 Kbps
    Channel(s) : 2 channels
    Channel positions : Front: L R
    Sampling rate : 48.0 KHz
    Compression mode : Lossy
    Stream size : 122 MiB (8%)
    Title : Original
    Language : English
    Encoded date : UTC 2014-02-13 06:55:21
    Tagged date : UTC 2014-02-13 06:58:39

    Text
    ID : 4
    Format : Timed Text
    Muxing mode : sbtl
    Codec ID : tx3g
    Duration : 1h 40mn
    Bit rate mode : Variable
    Bit rate : 88 bps
    Stream size : 65.1 KiB (0%)
    Title : Full
    Language : English
    Encoded date : UTC 2014-02-13 06:58:39
    Tagged date : UTC 2014-02-13 06:58:39

    Menu
    ID : 5
    Codec ID : text
    Duration : 1h 45mn
    Encoded date : UTC 2014-02-13 06:59:50
    Tagged date : UTC 2014-02-13 06:59:50
    Bit rate mode : CBR
    iTunes Meta Tags

    Sort Name: Last Vegas
    XID: Apple:vendor_id:2013-468571
    Content ID: 779516213
    Copyright: CBS Films, Gidden Media, Good Universe
    ScreenWriters: Дэн Фогельман
    Producers: Эми Баэр, Николь Браун, Джозеф Дрэйк
    Director: Джон Тёртелтауб
    Cast: Майкл Дуглас, Роберт Де Ниро, Морган Фриман, Кевин Клайн, Мэри Стинберген, Джерри Феррара, Романи Малко, Роджер Барт, Джоанна Глисон, Майкл Или, Владимир Еремин, Никита Прозоровский, Игорь Старосельцев, Алексей Иващенко, Любовь Германова
    Rating: PG-13
    Long Deion: Билли, Пэдди, Арчи и Сэм — четверка друзей не разлей вода с самого детства. Когда закоренелый холостяк Билли (Майкл Дуглас) наконец делает предложение своей молоденькой подружке, друзья решают отправиться на мальчишник не куда-нибудь, а конечно, в Лас-Вегас. Перед вами — Последний Мальчишник в Вегасе, только на этот раз без мальчишек. Это грандиозный голливудский мальчишник по-взрослому, где изменившийся до неузнаваемости за годы Лас-Вегас проверит дружбу героев на прочность самыми невообразимыми способами!
    Deion: Билли, Пэдди, Арчи и Сэм — четверка друзей не разлей вода с самого детства. Когда закоренелый холостяк Билли (Майкл Дуглас) наконец делает предложение своей молоденькой подружке, друзья решают отправиться на мальчишник в Лас-Вегас.
    Release Date: 2013-11-01T07:00:00Z
    Genre: Comedy
    Artist: Jon Turteltaub
    Name: Starперцы
    Comments: Мы - легенда
    x264 Log

    x264 info: frame I:2133 Avg QP:18.78 size: 33298
    x264 info: frame P:148909 Avg QP:22.01 size: 7974
    x264 info: mb I I16..4: 27.6% 0.0% 72.4%
    x264 info: mb P I16..4: 1.3% 0.0% 1.6% P16..4: 51.0% 16.6% 9.8% 2.0% 0.9% skip:16.8%
    x264 info: coded y,uvDC,uvAC intra: 54.0% 75.7% 49.8% inter: 36.7% 44.9% 21.0%
    x264 info: i16 v,h,dc,p: 54% 13% 9% 24%
    x264 info: i4 v,h,dc,ddl,ddr,vr,hd,vl,hu: 39% 11% 13% 5% 7% 9% 5% 7% 4%
    x264 info: i8c dc,h,v,p: 48% 13% 31% 8%
    x264 info: ref P L0: 76.9% 23.1%
    x264 info: kb/s:1598.11
    Скриншоты для ознакомления




    Залил: gekka
    Размер скачиваемого торрента: 1.41 GB (1515053592 Bytes)

    Starперцы / Last Vega (2013) HDRip-AVC | iPhone | P торрент скачать бесплатно
    загрузка...
    Рейтинг →
     (голосов: 1, оценка 5/5, голосовать можно 1 раз )

    Другие торренты по теме:

  • Starперцы (2013) торрент скачать бесплатно
  • Starперцы / Last Vegas (2013) CAMRip торрент скачать бесплатно
  • Starперцы / Last Vegas (2013) | TS скачать через торрент бесплатно
  • Starперцы / Last Vegas (2013) TS скачать через торрент бесплатно
  • Starперцы / Last Vegas (2013) BDRip 720p | звук c TS торрент скачать бесплатно
  • Starперцы / Last Vegas (2013) HDRip | Звук с TS торрент скачать бесплатно
  • Starперцы / Last Vegas (2013) BDRip-AVC | P скачать через торрент бесплатно
  • Starперцы / Last Vegas (2013) HDRip | BaibaKo скачать через торрент бесплатно


    • Комментарии (0):

      Информация

      Информация

        Посетители, находящиеся в группе Гости, не могут оставлять комментарии в данной новости.

        ↓ Меню



        ↓ Опрос

        А Вы добавили сайт в закладки?
        Да
        Не


        Top 10 за неделю (Фильмы)