.
Авторизация | Регистрация
Хочешь лучшие торренты? Добавь свой email!
Добавить
» » План побега / Escape Plan (2013) BDRip-AVC | iPhone | D | iTunes торрент скачать бесплатно




    План побега / Escape Plan (2013) BDRip-AVC | iPhone | D | iTunes торрент скачать бесплатно

    Опубликовал: Админ | Дата: 27-02-2015, 11:10 | Просмотров: 290



    План побега / Escape Plan (2013) BDRip-AVC | iPhone | D | iTunes

    Русское название: План побега
    Русское название в мировом прокате: Escape Plan
    Создали в: 2013
    Категория жанра: боевик, триллер
    Главный режиссер: Микаэль Хофстрём
    Актеры: Сильвестр Сталлоне, Арнольд Шварценеггер, Джеймс Кэвизел, Фифти Сент, Винни Джонс, Винсент Д’Онофрио, Эми Райан, Фаран Таир, Сэм Нил, Мэтт Джералд

    Сюжет фильма:
    Один из самых выдающихся мировых специалистов по системам безопасности соглашается на последнюю рисковую операцию: сбежать из суперсекретной высокотехнологичной тюрьмы, которую называют Гробницей. Преданный Рэй Бреслин вынужден прибегнуть к помощи напарника - заключенного Эмиля Ротмайера, чтобы разработать отчаянный и практически неосуществимый план побега из самой защищенной тюрьмы в мире!


    Снималось в: США
    Киностудия: © Summit
    Время просмотра: 01:55:35
    Перевод текста: Русский дублированный (iTunes)

    Файл
    Кодек для видео: H.264
    Качество фильма: BDRip-AVC 480p iPhone
    Информация о видео: 640x356@852x356 (2.40:1) at 23.976 fps, AVC at 1600 kbps
    Информация о звуке:
    1: 48 kHz, AAC 2.0, 160 kbps - Русский дублированный (iTunes)
    2: 48 kHz, AAC 2.0, 180 kbps - Английский
    Субтитры: Английские

    Media Info

    General
    Complete name : C:CREATE480outEscape Plan.2013 (SD).m4v
    Format : MPEG-4
    Codec ID : M4V
    File size : 1.57 GiB
    Duration : 1h 55mn
    Overall bit rate mode : Variable
    Overall bit rate : 1 946 Kbps
    Movie name : План побега
    Performer : Mikael H?fstr?m
    Genre : Action Adventure
    Recorded date : UTC 2013-10-18 07:00:00
    Encoded date : UTC 2014-02-13 06:04:41
    Tagged date : UTC 2014-02-13 06:21:04
    Copyright : © 2013 Georgia Film Fund Twelve, LLC.
    Cover : Yes
    Comment : Из самой надежной тюрьмы в одиночку убежать невозможно

    sonm : Escape Plan
    desc : История Рэя Бреслина, суперспеца по системам безопасности. Его подставляют и сажают в супертюрьму, откуда ещё никто не сбегал. Оттуда невозможно сбежать, потому что в своё время именно Бреслин настраивал местную систему безопасности.
    ldes : История Рэя Бреслина, суперспеца по системам безопасности. Его подставляют и сажают в супертюрьму, откуда ещё никто не сбегал. Оттуда невозможно сбежать, потому что в своё время именно Бреслин настраивал местную систему безопасности. Нашему герою всего лишь надо перехитрить самого себя, чтобы покинуть стены негостеприимного пристанища. А уже там, за пределами тюрьмы, он примется за поиски того, который устроил всё это.
    hdvd : 0
    stik : 9
    cnID : 744991104
    xid : Apple:vendor_id:2013-463686

    Video
    ID : 1
    Format : AVC
    Format/Info : Advanced Video Codec
    Format profile : Baseline@L3.0
    Format settings, CABAC : No
    Format settings, ReFrames : 2 frames
    Codec ID : avc1
    Codec ID/Info : Advanced Video Coding
    Duration : 1h 55mn
    Bit rate : 1 600 Kbps
    Maximum bit rate : 8 233 Kbps
    Width : 640 pixels
    Height : 356 pixels
    Display aspect ratio : 2.40:1
    Frame rate mode : Constant
    Frame rate : 23.976 fps
    Color space : YUV
    Chroma subsampling : 4:2:0
    Bit depth : 8 bits
    Scan type : Progressive
    Bits/(Pixel*Frame) : 0.293
    Stream size : 1.29 GiB (82%)
    Title : Escape Plan _2013_
    Writing library : x264 core 140 r2377 40 929f149 tMod 8-bit@4:2:0 X86_64
    Encoding settings : cabac=0 / ref=2 / deblock=1:-2:-2 / analyse=0x1:0x131 / me=umh / subme=7 / psy=1 / fade_compensate=1.00 / psy_rd=1.05:0.15 / mixed_ref=1 / me_range=32 / chroma_me=1 / trellis=2 / 8x8dct=0 / cqm=0 / deadzone=21,11 / fast_pskip=0 / chroma_qp_offset=-3 / threads=12 / lookahead_threads=2 / sliced_threads=0 / nr=0 / decimate=0 / interlaced=0 / bluray_compat=0 / constrained_intra=0 / fgo=0 / bframes=0 / weightp=0 / keyint=250 / keyint_min=23 / scenecut=40 / intra_refresh=0 / rc_lookahead=120 / rc=2pass / mbtree=1 / bitrate=1600 / ratetol=1.0 / qcomp=0.70 / qpmin=0:0:0 / qpmax=69:69:69 / qpstep=4 / cplxblur=20.0 / qblur=0.5 / vbv_maxrate=5000 / vbv_bufsize=5000 / nal_hrd=none / filler=0 / ip_ratio=1.40 / aq=4:0.80 / aq-sensitivity=10.00 / aq-factor=1.00:1.00:1.00 / aq2=0 / aq3=0
    Language : English
    Encoded date : UTC 2014-02-13 06:04:41
    Tagged date : UTC 2014-02-13 06:05:07
    Matrix coefficients : BT.709

    Audio #1
    ID : 2
    Format : AAC
    Format/Info : Advanced Audio Codec
    Format profile : LC
    Codec ID : 40
    Duration : 1h 55mn
    Bit rate mode : Variable
    Bit rate : 157 Kbps
    Maximum bit rate : 212 Kbps
    Channel(s) : 2 channels
    Channel positions : Front: L R
    Sampling rate : 48.0 KHz
    Compression mode : Lossy
    Stream size : 130 MiB (8%)
    Title : DUB _iTunes_
    Language : Russian
    Encoded date : UTC 2014-02-13 05:58:15
    Tagged date : UTC 2014-02-13 06:05:07

    Audio #2
    ID : 3
    Format : AAC
    Format/Info : Advanced Audio Codec
    Format profile : LC
    Codec ID : 40
    Duration : 1h 55mn
    Bit rate mode : Variable
    Bit rate : 177 Kbps
    Maximum bit rate : 237 Kbps
    Channel(s) : 2 channels
    Channel positions : Front: L R
    Sampling rate : 48.0 KHz
    Compression mode : Lossy
    Stream size : 146 MiB (9%)
    Language : English
    Encoded date : UTC 2014-02-13 06:02:15
    Tagged date : UTC 2014-02-13 06:05:07

    Text
    ID : 4
    Format : Timed Text
    Muxing mode : sbtl
    Codec ID : tx3g
    Duration : 1h 47mn
    Bit rate mode : Variable
    Bit rate : 55 bps
    Stream size : 43.5 KiB (0%)
    Title : Subtitle English
    Language : English
    Encoded date : UTC 2014-02-13 06:05:07
    Tagged date : UTC 2014-02-13 06:05:07

    Menu
    ID : 5
    Codec ID : text
    Duration : 1h 55mn
    Encoded date : UTC 2014-02-13 06:05:30
    Tagged date : UTC 2014-02-13 06:05:30
    Bit rate mode : VBR
    iTunes Meta Tags

    Media Type: Movie
    Sort Name: Escape Plan
    XID: Apple:vendor_id:2013-463686
    Content ID: 744991104
    Copyright: © 2013 Georgia Film Fund Twelve, LLC.
    ScreenWriters: Майлз Чэпман, Джейсон Келлер
    Producers: Робби Бреннер, Марк Кантон, Ремингтон Чейз
    Director: Микаэль Хофстрём
    Cast: Сильвестр Сталлоне, Арнольд Шварценеггер, Джеймс Кэвизел, Фифти Сент, Винни Джонс, Винсент Д’Онофрио, Эми Райан, Фаран Таир, Сэм Нил, Мэтт Джералд
    Rating: R
    Long Deion: История Рэя Бреслина, суперспеца по системам безопасности. Его подставляют и сажают в супертюрьму, откуда ещё никто не сбегал. Оттуда невозможно сбежать, потому что в своё время именно Бреслин настраивал местную систему безопасности. Нашему герою всего лишь надо перехитрить самого себя, чтобы покинуть стены негостеприимного пристанища. А уже там, за пределами тюрьмы, он примется за поиски того, который устроил всё это.
    Deion: История Рэя Бреслина, суперспеца по системам безопасности. Его подставляют и сажают в супертюрьму, откуда ещё никто не сбегал. Оттуда невозможно сбежать, потому что в своё время именно Бреслин настраивал местную систему безопасности.
    Release Date: 2013-10-18T07:00:00Z
    Genre: Action Adventure
    Artist: Mikael H?fstr?m
    Name: План побега
    Comments: Из самой надежной тюрьмы в одиночку убежать невозможно
    x264 Log

    x264 info: frame I:4765 Avg QP:15.96 size: 19721
    x264 info: frame P:161527 Avg QP:18.08 size: 8003
    x264 info: mb I I16..4: 37.1% 0.0% 62.9%
    x264 info: mb P I16..4: 2.2% 0.0% 2.9% P16..4: 46.3% 17.5% 9.2% 1.7% 0.8% skip:19.5%
    x264 info: coded y,uvDC,uvAC intra: 53.4% 57.0% 29.2% inter: 39.2% 24.7% 11.6%
    x264 info: i16 v,h,dc,p: 40% 13% 9% 38%
    x264 info: i4 v,h,dc,ddl,ddr,vr,hd,vl,hu: 37% 13% 13% 6% 7% 8% 5% 7% 4%
    x264 info: i8c dc,h,v,p: 58% 14% 24% 5%
    x264 info: ref P L0: 77.3% 22.7%
    x264 info: kb/s:1599.42
    Скриншоты для ознакомления




    Залил: gekka
    Размер скачиваемого торрента: 1.57 GB (1687295764 Bytes)

    План побега / Escape Plan (2013) BDRip-AVC | iPhone | D | iTunes торрент скачать бесплатно
    загрузка...
    Рейтинг →
     (голосов: 1, оценка 4/5, голосовать можно 1 раз )

    Другие торренты по теме:

  • План побега / Escape Plan (2013) HD 720p | L1 | Трейлер
  • План побега (2013)
  • План побега / Escape Plan (2013) CAMRip
  • OST - План побега / Escape Plan (2013) MP3
  • План побега / Escape Plan (2013) TS
  • План побега / Escape Plan (2013) WEBRip-AVC | Звук с TS
  • План побега / Escape Plan (2013) WEBRip | Звук с TS скачать через торрент бесплатно
  • План побега / Escape Plan (2013) HDTVRip | Звук с TS скачать через торрент бесплатно


    • Комментарии (0):

      Информация

      Информация

        Посетители, находящиеся в группе Гости, не могут оставлять комментарии в данной новости.

        ↓ Меню



        ↓ Опрос

        А Вы добавили сайт в закладки?
        Да
        Не


        Top 10 за месяц (Фильмы)