.
Авторизация | Регистрация
» » Убийство в Восточном экспрессе / Murder on the Orient Express (1974) BDRip-AVC | iPhone | D,P1 скачать через торрент бесплатно




    Убийство в Восточном экспрессе / Murder on the Orient Express (1974) BDRip-AVC | iPhone | D,P1 скачать через торрент бесплатно

    Опубликовал: Админ | Дата: 27-02-2015, 11:10 | Просмотров: 278



    Убийство в Восточном экспрессе / Murder on the Orient Express (1974) BDRip-AVC | iPhone | D, P1

    Русское название: Убийство в Восточном экспрессе
    Русское название в мировом прокате: Romeo and Juliet
    Создали в: 1974
    Категория жанра: драма, триллер, криминал, детектив
    Главный режиссер: Сидни Люмет
    Актеры: Альберт Финни, Лорен Бэколл, Мартин Болсам, Ванесса Редгрейв, Майкл Йорк, Жаклин Биссет, Ингрид Бергман, Шон Коннери, Жан-Пьер Кассель, Джон Гилгуд

    Сюжет фильма:
    Трансевропейский экспресс Стамбул-Кале попадает в снежный плен, и в то же время в одном из купе обнаружен убитый пассажир. Но детектив Эркюль Пуаро оказывается рядом и прямо на месте начинает расследование.


    Снималось в: Великобритания
    Киностудия: EMI Film Distributors, G.W. Films Limited
    Время просмотра: 02:07:59
    Перевод текста: Русский дублированный, профессиональный одноголосый закадровый (Сербин)

    Файл
    Кодек для видео: H.264
    Качество фильма: BDRip-AVC 480p iPhone
    Информация о видео: 640x460@852x460 (1.85:1) at 23.976 fps, AVC at 1800 kbps
    Информация о звуке:
    1: 48 kHz, AAC 2.0, 128 kbps - Русский дублированный
    2: 48 kHz, AAC 2.0, 128 kbps - Русский профессиональный одноголосый закадровый (Сербин)
    3: 48 kHz, AAC 2.0, 128 kbps - Английский
    Субтитры: Отсутствуют

    Media Info

    General
    Complete name : C:CREATE480outMurder on the Orient Express.1974 (SD).m4v
    Format : MPEG-4
    Codec ID : M4V
    File size : 1.91 GiB
    Duration : 2h 7mn
    Overall bit rate mode : Variable
    Overall bit rate : 2 133 Kbps
    Movie name : Убийство в Восточном экспрессе
    Performer : Sidney Lumet
    Genre : Drama
    Recorded date : UTC 1974-11-24 08:00:00
    Encoded date : UTC 2014-02-14 12:41:34
    Tagged date : UTC 2014-02-14 12:57:40
    Copyright : EMI Film Distributors, G.W. Films Limited
    Cover : Yes
    Comment : The Who;s Who in the Whodunnit!
    sonm : Murder on the Orient Express
    desc : Трансевропейский экспресс Стамбул-Кале попадает в снежный плен, и в то же время в одном из купе обнаружен убитый пассажир. Но детектив Эркюль Пуаро оказывается рядом и прямо на месте начинает расследование.
    ldes : Трансевропейский экспресс Стамбул-Кале попадает в снежный плен, и в то же время в одном из купе обнаружен убитый пассажир. Но детектив Эркюль Пуаро оказывается рядом и прямо на месте начинает расследование.
    stik : 9
    rtng : 0
    cnID : 927
    xid : Apple:vendor_id:1974-927
    iTunEXTC : mpaa|PG|200|

    Video #1
    ID : 1
    Format : AVC
    Format/Info : Advanced Video Codec
    Format profile : Baseline@L3.0
    Format settings, CABAC : No
    Format settings, ReFrames : 2 frames
    Codec ID : avc1
    Codec ID/Info : Advanced Video Coding
    Duration : 2h 7mn
    Bit rate : 1 800 Kbps
    Maximum bit rate : 7 541 Kbps
    Width : 640 pixels
    Height : 460 pixels
    Display aspect ratio : 1.85:1
    Frame rate mode : Constant
    Frame rate : 23.976 fps
    Color space : YUV
    Chroma subsampling : 4:2:0
    Bit depth : 8 bits
    Scan type : Progressive
    Bits/(Pixel*Frame) : 0.255
    Stream size : 1.61 GiB (84%)
    Title : Murder on the Orient Express _1974_
    Writing library : x264 core 140 r2377 40 929f149 tMod 8-bit@4:2:0 X86_64
    Encoding settings : cabac=0 / ref=2 / deblock=1:-2:-2 / analyse=0x1:0x131 / me=umh / subme=7 / psy=1 / fade_compensate=0.10 / psy_rd=1.05:0.15 / mixed_ref=1 / me_range=32 / chroma_me=1 / trellis=2 / 8x8dct=0 / cqm=0 / deadzone=21,11 / fast_pskip=0 / chroma_qp_offset=-3 / threads=12 / lookahead_threads=2 / sliced_threads=0 / nr=0 / decimate=0 / interlaced=0 / bluray_compat=0 / constrained_intra=0 / fgo=5 / bframes=0 / weightp=0 / keyint=250 / keyint_min=23 / scenecut=40 / intra_refresh=0 / rc_lookahead=120 / rc=2pass / mbtree=1 / bitrate=1800 / ratetol=1.0 / qcomp=0.65 / qpmin=0:0:0 / qpmax=69:69:69 / qpstep=4 / cplxblur=20.0 / qblur=0.5 / vbv_maxrate=5000 / vbv_bufsize=5000 / nal_hrd=none / filler=0 / ip_ratio=1.40 / aq=4:0.80 / aq-sensitivity=10.00 / aq-factor=1.00:1.00:1.00 / aq2=0 / aq3=0
    Language : English
    Encoded date : UTC 2014-02-14 12:41:34
    Tagged date : UTC 2014-02-14 12:42:14
    Matrix coefficients : BT.709

    Video #2
    ID : 6
    Format : JPEG
    Codec ID : jpeg
    Duration : 2h 7mn
    Duration_LastFrame : -2mn 0s
    Bit rate mode : Variable
    Bit rate : 958 bps
    Width : 640 pixels
    Height : 345 pixels
    Display aspect ratio : 1.85:1
    Frame rate mode : Constant
    Frame rate : 0.003 fps
    Color space : YUV
    Chroma subsampling : 4:2:0
    Bit depth : 8 bits
    Compression mode : Lossy
    Bits/(Pixel*Frame) : 1.446
    Stream size : 1 014 KiB (0%)
    Language : English
    Encoded date : UTC 2014-02-14 12:57:33
    Tagged date : UTC 2014-02-14 12:57:34

    Audio #1
    ID : 2
    Format : AAC
    Format/Info : Advanced Audio Codec
    Format profile : LC
    Codec ID : 40
    Duration : 2h 7mn
    Bit rate mode : Variable
    Bit rate : 96.0 Kbps
    Maximum bit rate : 142 Kbps
    Channel(s) : 2 channels
    Channel positions : Front: L R
    Sampling rate : 48.0 KHz
    Compression mode : Lossy
    Stream size : 87.5 MiB (4%)
    Title : DUB
    Language : Russian
    Encoded date : UTC 2014-02-14 12:27:41
    Tagged date : UTC 2014-02-14 12:42:14

    Audio #2
    ID : 3
    Format : AAC
    Format/Info : Advanced Audio Codec
    Format profile : LC
    Codec ID : 40
    Duration : 2h 7mn
    Bit rate mode : Variable
    Bit rate : 113 Kbps
    Maximum bit rate : 221 Kbps
    Channel(s) : 2 channels
    Channel positions : Front: L R
    Sampling rate : 48.0 KHz
    Compression mode : Lossy
    Stream size : 104 MiB (5%)
    Title : AVO _Serbin_
    Language : Russian
    Encoded date : UTC 2014-02-14 12:32:58
    Tagged date : UTC 2014-02-14 12:42:14

    Audio #3
    ID : 4
    Format : AAC
    Format/Info : Advanced Audio Codec
    Format profile : LC
    Codec ID : 40
    Duration : 2h 7mn
    Bit rate mode : Variable
    Bit rate : 116 Kbps
    Maximum bit rate : 220 Kbps
    Channel(s) : 2 channels
    Channel positions : Front: L R
    Sampling rate : 48.0 KHz
    Compression mode : Lossy
    Stream size : 107 MiB (5%)
    Title : Original
    Language : English
    Encoded date : UTC 2014-02-14 12:38:27
    Tagged date : UTC 2014-02-14 12:42:14

    Menu
    ID : 5
    Codec ID : text
    Duration : 2h 7mn
    Language : English
    Encoded date : UTC 2014-02-14 12:44:08
    Tagged date : UTC 2014-02-14 12:44:08
    Bit rate mode : CBR
    Duration_LastFrame : -120445
    iTunes Meta Tags

    Sort Name: Murder on the Orient Express
    XID: Apple:vendor_id:1974-927
    Content ID: 927
    Copyright: EMI Film Distributors, G.W. Films Limited
    ScreenWriters: Пол Ден, Энтони Шэффер, Агата Кристи
    Producers: Джон Брабуне, Ричард Б. Гудвин
    Director: Сидни Люмет
    Cast: Альберт Финни, Лорен Бэколл, Мартин Болсам, Ванесса Редгрейв, Майкл Йорк, Жаклин Биссет, Ингрид Бергман, Шон Коннери, Жан-Пьер Кассель, Джон Гилгуд, Артем Карапетян, Виктория Радунская, Владимир Дружников, Лариса Данилина, Владимир Разумовский
    Rating: PG
    Long Deion: Трансевропейский экспресс Стамбул-Кале попадает в снежный плен, и в то же время в одном из купе обнаружен убитый пассажир. Но детектив Эркюль Пуаро оказывается рядом и прямо на месте начинает расследование.
    Deion: Трансевропейский экспресс Стамбул-Кале попадает в снежный плен, и в то же время в одном из купе обнаружен убитый пассажир. Но детектив Эркюль Пуаро оказывается рядом и прямо на месте начинает расследование.
    Release Date: 1974-11-24T08:00:00Z
    Genre: Drama
    Artist: Sidney Lumet
    Name: Убийство в Восточном экспрессе
    Comments: The Who;s Who in the Whodunnit!
    x264 Log

    x264 info: frame I:1746 Avg QP:18.35 size: 32626
    x264 info: frame P:182379 Avg QP:21.12 size: 9163
    x264 info: mb I I16..4: 43.6% 0.0% 56.4%
    x264 info: mb P I16..4: 0.4% 0.0% 0.3% P16..4: 53.0% 18.0% 15.7% 0.9% 0.8% skip:10.9%
    x264 info: coded y,uvDC,uvAC intra: 60.0% 58.2% 28.6% inter: 46.1% 38.5% 5.9%
    x264 info: i16 v,h,dc,p: 54% 11% 11% 25%
    x264 info: i4 v,h,dc,ddl,ddr,vr,hd,vl,hu: 24% 10% 21% 8% 8% 9% 6% 8% 5%
    x264 info: i8c dc,h,v,p: 62% 12% 20% 6%
    x264 info: ref P L0: 79.7% 20.3%
    x264 info: kb/s:1800.19
    Скриншоты для ознакомления




    Залил: gekka
    Размер скачиваемого торрента: 1.91 GB (2047605840 Bytes)

    Убийство в Восточном экспрессе / Murder on the Orient Express (1974) BDRip-AVC | iPhone | D,P1 скачать через торрент бесплатно
    загрузка...
    Рейтинг →
     (голосов: 1, оценка 5/5, голосовать можно 1 раз )

    Другие торренты по теме:



      Комментарии (0):

      Информация

      Информация

        Посетители, находящиеся в группе Гости, не могут оставлять комментарии в данной новости.

        ↓ Меню



        ↓ Опрос

        А Вы добавили сайт в закладки?
        Да
        Не


        Top 10 за неделю (Фильмы)