.
Авторизация | Регистрация
» » Ромео и Джульетта / Romeo and Juliet (2013) BDRip-AVC | D | iPhone скачать через торрент бесплатно




    Ромео и Джульетта / Romeo and Juliet (2013) BDRip-AVC | D | iPhone скачать через торрент бесплатно

    Опубликовал: Админ | Дата: 27-02-2015, 11:10 | Просмотров: 228



    Ромео и Джульетта / Romeo and Juliet (2013) BDRip-AVC | iPhone | D

    Русское название: Ромео и Джульетта
    Русское название в мировом прокате: Romeo and Juliet
    Создали в: 2013
    Категория жанра: драма, мелодрама
    Главный режиссер: Карло Карлей
    Актеры: Дуглас Бут, Хейли Стайнфелд, Дэмиэн Льюис, Коди Смит-МакФи, Эд Вествик, Пол Джаматти, Томас Арана, Наташа МакЭлхоун, Стеллан Скарсгард, Лесли Мэнвилл

    Сюжет фильма:
    Эпоха Раннего Возрождения. Юноша и девушка из враждующих семей влюбляются друг в друга. Рок не дает им быть вместе. Лишь смерть на пике запретной страсти помогает Ромео и Джульетте спасти свою любовь.


    Снималось в: Великобритания, Италия, Швейцария
    Киностудия: Amber Entertainment, Echo Lake Productions (I), Indiana Production Company
    Время просмотра: 01:53:25
    Перевод текста: Русский дублированный

    Файл
    Кодек для видео: H.264
    Качество фильма: BDRip-AVC 480p iPhone
    Информация о видео: 640x356@851x356 (2.40:1) at 23.976 fps, AVC at 1250 kbps
    Информация о звуке:
    1: 48 kHz, AAC 2.0, 192 kbps - Русский дублированный
    Субтитры: Отсутствуют

    Media Info

    General
    Complete name : C:CREATE480outRomeo and Juliet.2013 (SD).m4v
    Format : MPEG-4
    Codec ID : M4V
    File size : 1.14 GiB
    Duration : 1h 53mn
    Overall bit rate mode : Variable
    Overall bit rate : 1 445 Kbps
    Movie name : Ромео и Джульетта
    Performer : Carlo Carlei
    Genre : Drama
    Recorded date : UTC 2013-10-11 07:00:00
    Encoded date : UTC 2014-02-14 10:37:05
    Tagged date : UTC 2014-02-14 10:43:01
    Copyright : Amber Entertainment, Echo Lake Productions (I), Indiana Production Company
    Cover : Yes
    Comment : Величайшая история любви всех времён
    sonm : Romeo and Juliet
    desc : Верона. Эпоха Раннего Возрождения. Юноша и девушка из враждующих семей влюбляются друг в друга. Рок не дает им быть вместе. Лишь смерть на пике запретной страсти помогает Ромео и Джульетте спасти свою любовь.
    ldes : Верона. Эпоха Раннего Возрождения. Юноша и девушка из враждующих семей влюбляются друг в друга. Рок не дает им быть вместе. Лишь смерть на пике запретной страсти помогает Ромео и Джульетте спасти свою любовь.
    stik : 9
    rtng : 0
    cnID : 804668885
    xid : Apple:vendor_id:2013-512326
    iTunEXTC : mpaa|PG-13|300|

    Video #1
    ID : 1
    Format : AVC
    Format/Info : Advanced Video Codec
    Format profile : Baseline@L3.0
    Format settings, CABAC : No
    Format settings, ReFrames : 2 frames
    Codec ID : avc1
    Codec ID/Info : Advanced Video Coding
    Duration : 1h 53mn
    Bit rate : 1 251 Kbps
    Maximum bit rate : 6 618 Kbps
    Width : 640 pixels
    Height : 356 pixels
    Display aspect ratio : 2.40:1
    Frame rate mode : Constant
    Frame rate : 25.000 fps
    Color space : YUV
    Chroma subsampling : 4:2:0
    Bit depth : 8 bits
    Scan type : Progressive
    Bits/(Pixel*Frame) : 0.220
    Stream size : 1 015 MiB (87%)
    Title : Romeo and Juliet _2013_
    Writing library : x264 core 140 r2377 40 929f149 tMod 8-bit@4:2:0 X86_64
    Encoding settings : cabac=0 / ref=2 / deblock=1:-2:-2 / analyse=0x1:0x131 / me=umh / subme=7 / psy=1 / fade_compensate=1.00 / psy_rd=1.00:0.10 / mixed_ref=1 / me_range=32 / chroma_me=1 / trellis=2 / 8x8dct=0 / cqm=0 / deadzone=21,11 / fast_pskip=1 / chroma_qp_offset=-3 / threads=12 / lookahead_threads=2 / sliced_threads=0 / nr=0 / decimate=0 / interlaced=0 / bluray_compat=0 / constrained_intra=0 / fgo=0 / bframes=0 / weightp=0 / keyint=250 / keyint_min=25 / scenecut=40 / intra_refresh=0 / rc_lookahead=120 / rc=crf / mbtree=1 / crf=20.0000 / qcomp=0.70 / qpmin=0:0:0 / qpmax=69:69:69 / qpstep=4 / vbv_maxrate=5000 / vbv_bufsize=5000 / crf_max=0.0 / nal_hrd=none / filler=0 / ip_ratio=1.35 / aq=4:0.90 / aq-sensitivity=10.00 / aq-factor=1.00:1.00:1.00 / aq2=0 / aq3=0
    Language : English
    Encoded date : UTC 2014-02-14 10:37:05
    Tagged date : UTC 2014-02-14 10:37:28
    Matrix coefficients : BT.709

    Video #2
    ID : 4
    Format : JPEG
    Codec ID : jpeg
    Duration : 1h 53mn
    Duration_LastFrame : -6mn 35s
    Bit rate mode : Variable
    Bit rate : 473 bps
    Width : 640 pixels
    Height : 267 pixels
    Display aspect ratio : 2.40:1
    Frame rate mode : Constant
    Frame rate : 0.002 fps
    Color space : YUV
    Chroma subsampling : 4:2:0
    Bit depth : 8 bits
    Compression mode : Lossy
    Bits/(Pixel*Frame) : 1.384
    Stream size : 347 KiB (0%)
    Language : English
    Encoded date : UTC 2014-02-14 10:42:58
    Tagged date : UTC 2014-02-14 10:42:58

    Audio
    ID : 2
    Format : AAC
    Format/Info : Advanced Audio Codec
    Format profile : LC
    Codec ID : 40
    Duration : 1h 53mn
    Bit rate mode : Variable
    Bit rate : 186 Kbps
    Maximum bit rate : 241 Kbps
    Channel(s) : 2 channels
    Channel positions : Front: L R
    Sampling rate : 48.0 KHz
    Compression mode : Lossy
    Stream size : 151 MiB (13%)
    Title : DUB
    Language : Russian
    Encoded date : UTC 2014-02-14 10:34:17
    Tagged date : UTC 2014-02-14 10:37:28

    Menu #1
    00:00:00.000 : Chapter 1
    00:10:00.000 : Chapter 2
    00:20:00.000 : Chapter 3
    00:30:00.000 : Chapter 4
    00:40:00.000 : Chapter 5
    00:50:00.000 : Chapter 6
    01:00:00.000 : Chapter 7
    01:10:00.000 : Chapter 8
    01:20:00.000 : Chapter 9
    01:30:00.000 : Chapter 10
    01:40:00.000 : Chapter 11
    01:50:00.000 : Chapter 12

    Menu #2
    ID : 3
    Codec ID : text
    Duration : 1h 53mn
    Language : English
    Encoded date : UTC 2014-02-14 10:42:55
    Tagged date : UTC 2014-02-14 10:42:55
    Bit rate mode : VBR
    Duration_LastFrame : -395000
    iTunes Meta Tags

    Sort Name: Romeo and Juliet
    XID: Apple:vendor_id:2013-512326
    Content ID: 804668885
    Copyright: Amber Entertainment, Echo Lake Productions (I), Indiana Production Company
    ScreenWriters: Джулиан Феллоуз, Уильям Шекспир
    Producers: Саймон Босанкет, Лоуренс Элман, Джулиан Феллоуз
    Director: Карло Карлей
    Cast: Дуглас Бут, Хейли Стайнфелд, Дэмиэн Льюис, Коди Смит-МакФи, Эд Вествик, Пол Джаматти, Томас Арана, Наташа МакЭлхоун, Стеллан Скарсгард, Лесли Мэнвилл
    Rating: PG-13
    Long Deion: Верона. Эпоха Раннего Возрождения. Юноша и девушка из враждующих семей влюбляются друг в друга. Рок не дает им быть вместе. Лишь смерть на пике запретной страсти помогает Ромео и Джульетте спасти свою любовь.
    Deion: Верона. Эпоха Раннего Возрождения. Юноша и девушка из враждующих семей влюбляются друг в друга. Рок не дает им быть вместе. Лишь смерть на пике запретной страсти помогает Ромео и Джульетте спасти свою любовь.
    Release Date: 2013-10-11T07:00:00Z
    Genre: Drama
    Artist: Carlo Carlei
    Name: Ромео и Джульетта
    Comments: Величайшая история любви всех времён
    x264 Log

    x264 info: frame I:1993 Avg QP:16.70 size: 29246
    x264 info: frame P:168132 Avg QP:19.81 size: 5984
    x264 info: mb I I16..4: 28.5% 0.0% 71.5%
    x264 info: mb P I16..4: 1.2% 0.0% 1.4% P16..4: 39.9% 14.2% 7.1% 1.2% 0.6% skip:34.4%
    x264 info: coded y,uvDC,uvAC intra: 52.0% 67.3% 36.6% inter: 29.6% 29.0% 11.9%
    x264 info: i16 v,h,dc,p: 50% 13% 10% 27%
    x264 info: i4 v,h,dc,ddl,ddr,vr,hd,vl,hu: 40% 11% 14% 5% 6% 8% 5% 7% 4%
    x264 info: i8c dc,h,v,p: 51% 13% 29% 7%
    x264 info: ref P L0: 77.1% 22.9%
    x264 info: kb/s:1251.35
    Скриншоты для ознакомления




    Залил: gekka
    Размер скачиваемого торрента: 1.14 GB (1229090342 Bytes)

    Ромео и Джульетта / Romeo and Juliet (2013) BDRip-AVC | D | iPhone скачать через торрент бесплатно
    загрузка...
    Рейтинг →
     (голосов: 1, оценка 3/5, голосовать можно 1 раз )

    Другие торренты по теме:

  • Ромео и Юлия / Romeo i Julcia (1933) TVRip торрент скачать бесплатно
  • Ромео должен умереть / Romeo Must Die (2000) DVD9 от NovaLan торрент скачать бесплатно
  • Ромео и Джульетта / Romeo and Juliet (1968) BDRip от HQ-ViDEO торрент скачать бесплатно
  • Ромео и Джульетта / Romeo and Juliet (1968) BDRip от HQCLUB торрент скачать бесплатно
  • Ромео и Джульетта / Romeo and Juliet: A Love Song (2013) DVD5 от Youtracker | Sub | сжатый торрент скачать бесплатно
  • Ромео и Джульетта / Romeo and Juliet: A Love Song (2013) DVDRip-AVC от Youtracker | Sub | лицензия торрент скачать бесплатно
  • Ромео и Джульетта / Romeo and Juliet: A Love Song (2013) DVD9 R5 от Youtracker | Sub | лицензия торрент скачать бесплатно
  • Ромео и Джульетта / Romeo and Juliet: A Love Song (2013) DVDRip от Youtracker | Sub | лицензия торрент скачать бесплатно


    • Комментарии (0):

      Информация

      Информация

        Посетители, находящиеся в группе Гости, не могут оставлять комментарии в данной новости.

        ↓ Меню



        ↓ Опрос

        А Вы добавили сайт в закладки?
        Да
        Не


        Top 10 за неделю (Фильмы)