.
Авторизация | Регистрация
Хочешь лучшие торренты? Добавь свой email!
Добавить
» » Вечное сияние чистого разума / Eternal Sunshine of the Spotless Mind (2004) BDRip-AVC | iPhone | D скачать через торрент бесплатно




    Вечное сияние чистого разума / Eternal Sunshine of the Spotless Mind (2004) BDRip-AVC | iPhone | D скачать через торрент бесплатно

    Опубликовал: Админ | Дата: 27-02-2015, 11:10 | Просмотров: 285



    Вечное сияние чистого разума / Eternal Sunshine of the Spotless Mind (2004) BDRip-AVC | iPhone | D

    Русское название: Вечное сияние чистого разума
    Русское название в мировом прокате: Eternal Sunshine of the Spotless Mind
    Создали в: 2004
    Категория жанра: фантастика, драма, мелодрама
    Главный режиссер: Мишель Гондри
    Актеры: Джим Керри, Кейт Уинслет, Элайджа Вуд, Марк Руффало, Том Уилкинсон, Кирстен Данст, Томас Джей Райан, Джейн Адамс, Дэвид Кросс, Джерри Роберт Бирн

    Сюжет фильма:
    Наконец-то изобретена машина, которая позволяет избавиться от любых воспоминаний. Джоэль и Клементина решают выбросить друг друга из головы. Но в памяти Джоэля все еще живы самые нежные моменты их чувства. Чем меньше он помнит, тем больше любит. Понимая, что он просто обожает Клементину, Джоэль пытается найти способ, чтобы вернуть любимой память о прошлом. Пока еще не очень поздно… Он должен победить ненавистный компьютерный мозг во что бы то ни стало


    Снималось в: США
    Киностудия: Focus Features, Anonymous Content, This Is That Productions
    Время просмотра: 01:47:48
    Перевод текста: Русский дублированный

    Файл
    Кодек для видео: H.264
    Качество фильма: BDRip-AVC 480p iPhone
    Информация о видео: 640x464@851x464 (1.85:1) at 23.976 fps, AVC at 1800 kbps
    Информация о звуке:
    1: 48 kHz, AAC 2.0, 180 kbps - Русский дублированный
    2: 48 kHz, AAC 2.0, 180 kbps - Английский
    Субтитры: Русские, Английские

    Media Info

    General
    Complete name : C:CREATE480outEternal Sunshine of the Spotless Mind.2004 (SD).m4v
    Format : MPEG-4
    Codec ID : M4V
    File size : 1.63 GiB
    Duration : 1h 47mn
    Overall bit rate mode : Variable
    Overall bit rate : 2 171 Kbps
    Movie name : Вечное сияние чистого разума
    Performer : Мишель Гондри
    Genre : Drama
    Recorded date : UTC 2004-03-19 08:00:00
    Encoded date : UTC 2013-08-01 06:47:44
    Tagged date : UTC 2013-08-01 06:49:43
    Copyright : © Focus Features, Anonymous Content, This Is That Productions
    Cover : Yes
    Comment : Можно стереть любовь из памяти. Выкинуть из сердца - это уже другая история
    iTunEXTC : mpaa|R|400|

    sonm : Eternal Sunshine of the Spotless Mind
    desc : Наконец-то изобретена машина, которая позволяет избавиться от любых воспоминаний. Джоэль и Клементина решают выбросить друг друга из головы. Но в памяти Джоэля все еще живы самые нежные моменты их чувства. Чем меньше он помнит, тем больше любит.
    ldes : Наконец-то изобретена машина, которая позволяет избавиться от любых воспоминаний. Джоэль и Клементина решают выбросить друг друга из головы. Но в памяти Джоэля все еще живы самые нежные моменты их чувства. Чем меньше он помнит, тем больше любит. Понимая, что он просто обожает Клементину, Джоэль пытается найти способ, чтобы вернуть любимой память о прошлом. Пока еще не очень поздно… Он должен победить ненавистный компьютерный мозг во что бы то ни стало!
    hdvd : 0
    stik : 9
    rtng : 0
    akID : -1
    sfID : 0
    cnID : 303440550
    xid : Apple:vendor_id:2004-5492

    Video
    ID : 1
    Format : AVC
    Format/Info : Advanced Video Codec
    Format profile : Baseline@L3.0
    Format settings, CABAC : No
    Format settings, ReFrames : 2 frames
    Format settings, GOP : N=1
    Codec ID : avc1
    Codec ID/Info : Advanced Video Coding
    Duration : 1h 47mn
    Bit rate : 1 800 Kbps
    Maximum bit rate : 6 914 Kbps
    Width : 640 pixels
    Height : 464 pixels
    Display aspect ratio : 1.85:1
    Frame rate mode : Constant
    Frame rate : 23.976 fps
    Color space : YUV
    Chroma subsampling : 4:2:0
    Bit depth : 8 bits
    Scan type : Progressive
    Bits/(Pixel*Frame) : 0.253
    Stream size : 1.35 GiB (83%)
    Title : Eternal Sunshine of the Spotless Mind (2004) Released for NNM-Club by gekka
    Writing library : x264 core 133 r2334 704 50 a7549b7 tMod 8-bit@4:2:0 X86_64
    Encoding settings : cabac=0 / ref=2 / deblock=1:-1:-1 / analyse=0x1:0x131 / me=umh / subme=7 / psy=1 / fade_compensate=0.10 / psy_rd=1.00:0.15 / mixed_ref=1 / me_range=32 / chroma_me=1 / trellis=2 / 8x8dct=0 / cqm=0 / deadzone=21,11 / fast_pskip=0 / chroma_qp_offset=-3 / threads=12 / lookahead_threads=2 / sliced_threads=0 / nr=0 / decimate=0 / interlaced=0 / bluray_compat=0 / constrained_intra=0 / fgo=0 / bframes=0 / weightp=0 / keyint=250 / keyint_min=23 / scenecut=40 / intra_refresh=0 / rc_lookahead=120 / rc=2pass / mbtree=1 / bitrate=1800 / ratetol=1.0 / qcomp=0.70 / qpmin=0 / qpmax=69 / qpstep=4 / cplxblur=20.0 / qblur=0.5 / vbv_maxrate=5000 / vbv_bufsize=5000 / nal_hrd=none / ip_ratio=1.30 / aq=4:0.90 / aq-sensitivity=10.00 / aq-factor=1.00:1.00:1.00 / aq2=0 / aq3=0
    Language : English
    Encoded date : UTC 2013-08-01 06:47:44
    Tagged date : UTC 2013-08-01 06:48:18
    Matrix coefficients : BT.709

    Audio #1
    ID : 2
    Format : AAC
    Format/Info : Advanced Audio Codec
    Format profile : LC
    Codec ID : 40
    Duration : 1h 47mn
    Bit rate mode : Variable
    Bit rate : 183 Kbps
    Maximum bit rate : 222 Kbps
    Channel(s) : 2 channels
    Channel positions : Front: L R
    Sampling rate : 48.0 KHz
    Compression mode : Lossy
    Stream size : 141 MiB (8%)
    Title : AAC Russian DUB
    Language : Russian
    Encoded date : UTC 2013-08-01 06:48:05
    Tagged date : UTC 2013-08-01 06:48:18

    Audio #2
    ID : 3
    Format : AAC
    Format/Info : Advanced Audio Codec
    Format profile : LC
    Codec ID : 40
    Duration : 1h 47mn
    Bit rate mode : Variable
    Bit rate : 181 Kbps
    Maximum bit rate : 225 Kbps
    Channel(s) : 2 channels
    Channel positions : Front: L R
    Sampling rate : 48.0 KHz
    Compression mode : Lossy
    Stream size : 139 MiB (8%)
    Title : AAC English
    Language : English
    Encoded date : UTC 2013-08-01 06:48:11
    Tagged date : UTC 2013-08-01 06:48:18

    Text #1
    ID : 4
    Format : Timed Text
    Muxing mode : sbtl
    Codec ID : tx3g
    Duration : 1h 43mn
    Bit rate mode : Variable
    Bit rate : 107 bps
    Stream size : 80.9 KiB (0%)
    Title : Subtitle Russian
    Language : Russian
    Encoded date : UTC 2013-08-01 06:48:17
    Tagged date : UTC 2013-08-01 06:48:18

    Text #2
    ID : 5
    Format : Timed Text
    Muxing mode : sbtl
    Codec ID : tx3g
    Duration : 1h 43mn
    Bit rate mode : Variable
    Bit rate : 85 bps
    Stream size : 64.7 KiB (0%)
    Title : Subtitle English
    Language : English
    Encoded date : UTC 2013-08-01 06:48:18
    Tagged date : UTC 2013-08-01 06:48:18

    Menu
    ID : 6
    Codec ID : text
    Duration : 1h 47mn
    Encoded date : UTC 2013-08-01 06:48:46
    Tagged date : UTC 2013-08-01 06:48:46
    Bit rate mode : VBR
    Duration_LastFrame : -131281
    iTunes Meta Tags

    Sort Name: Eternal Sunshine of the Spotless Mind
    XID: Apple:vendor_id:2004-5492
    contentID: 303440550
    Copyright: © Focus Features, Anonymous Content, This Is That Productions
    Screenwriters: Чарли Кауфман, Мишель Гондри, Пьер Бисмут
    Producers: Энтони Брегман, Стив Голин, Жорж Берманн
    Director: Michel Gondry
    Cast: Джим Керри, Кейт Уинслет, Элайджа Вуд, Марк Руффало, Том Уилкинсон, Кирстен Данст, Томас Джей Райан, Джейн Адамс, Дэвид Кросс, Джерри Роберт Бирн
    Studio: © Focus Features, Anonymous Content, This Is That Productions
    Rating: 5
    Long Deion: Наконец-то изобретена машина, которая позволяет избавиться от любых воспоминаний. Джоэль и Клементина решают выбросить друг друга из головы. Но в памяти Джоэля все еще живы самые нежные моменты их чувства. Чем меньше он помнит, тем больше любит. Понимая, что он просто обожает Клементину, Джоэль пытается найти способ, чтобы вернуть любимой память о прошлом. Пока еще не очень поздно… Он должен победить ненавистный компьютерный мозг во что бы то ни стало!
    From acclaimed writer Charlie Kaufman and visionary director Michel Gondry comes Eternal Sunshine of the Spotless Mind. An all-star ensemble cast shines in this comical and poignant look at breakups, breakdowns and breakthroughs. Joel (Jim Carrey) is stunned to discover that his girlfriend, Clementine (Kate Winslet), has had their tumultuous relationship erased from her mind. Out of desperation, he contacts the inventor of the process, Dr. Howard Mierzwiak (Tom Wilkinson), to get the same treatment. But as his memories of Clementine begin to fade, Joel suddenly realizes how much he still loves her. Kirsten Dunst, Mark Ruffalo and Elijah Wood co-star in Eternal Sunshine of the Spotless Mind - a memorable film that The Wall Street Journal calls a romantic comedy unlike any other!
    Deion: Наконец-то изобретена машина, которая позволяет избавиться от любых воспоминаний. Джоэль и Клементина решают выбросить друг друга из головы. Но в памяти Джоэля все еще живы самые нежные моменты их чувства. Чем меньше он помнит, тем больше любит.
    Release Date: 2004-03-19T08:00:00Z
    Genre: Drama
    Comments: Можно стереть любовь из памяти. Выкинуть из сердца - это уже другая история
    Artist: Мишель Гондри
    Name: Вечное сияние чистого разума
    x264 Log

    x264 info: frame I:2373 Avg QP:16.05 size: 22055
    x264 info: frame P:152721 Avg QP:17.94 size: 9172
    x264 info: mb I I16..4: 43.4% 0.0% 56.6%
    x264 info: mb P I16..4: 2.1% 0.0% 2.3% P16..4: 50.5% 21.3% 9.0% 1.2% 0.5% skip:13.1%
    x264 info: coded y,uvDC,uvAC intra: 53.0% 62.7% 35.8% inter: 42.0% 32.5% 16.0%
    x264 info: i16 v,h,dc,p: 41% 11% 7% 40%
    x264 info: i4 v,h,dc,ddl,ddr,vr,hd,vl,hu: 28% 15% 14% 6% 9% 10% 7% 7% 4%
    x264 info: i8c dc,h,v,p: 54% 13% 25% 8%
    x264 info: ref P L0: 77.8% 22.2%
    x264 info: kb/s:1797.10
    Скриншоты для ознакомления




    Залил: gekka
    Размер скачиваемого торрента: 1.63 GB (1755369413 Bytes)

    Вечное сияние чистого разума / Eternal Sunshine of the Spotless Mind (2004) BDRip-AVC | iPhone | D скачать через торрент бесплатно
    загрузка...
    Рейтинг →
     (голосов: 1, оценка 5/5, голосовать можно 1 раз )

    Другие торренты по теме:

  • Вечное сияние чистого разума / Eternals Sunshine of the Spotless Mind (2004) BDRip 720p
  • Вечное сияние чистого разума / Eternal Sunshine of the Spotless Mind (2004) BDRip-AVC от MediaClub | D, P2, A скачать через торрент бесплатно
  • Вечное сияние чистого разума / Eternal Sunshine of the Spotless Mind (2004) Blu-Ray | D скачать через торрент бесплатно
  • Вечное сияние чистого разума / Eternals Sunshine of the Spotless Mind / 2004 / ДБ, АП (Королев, Рудой, Горчаков, Алексеев), СТ / BDRip (720p)


    • Комментарии (0):

      Информация

      Информация

        Посетители, находящиеся в группе Гости, не могут оставлять комментарии в данной новости.

        ↓ Меню



        ↓ Опрос

        А Вы добавили сайт в закладки?
        Да
        Не


        Top 10 за месяц (Фильмы)