.
Авторизация | Регистрация
» » Тор 2: Царство тьмы / Thor: The Dark World (2013) BDRemux 1080p | Лицензия скачать через торрент бесплатно




    Тор 2: Царство тьмы / Thor: The Dark World (2013) BDRemux 1080p | Лицензия скачать через торрент бесплатно

    Опубликовал: Админ | Дата: 27-02-2015, 11:10 | Просмотров: 266



    Детально о кино
    Русское название: Тор 2: Царство тьмы
    Русское название в мировом прокате: Thor: The Dark World
    Создали в: 2013
    Категория жанра: Фэнтези, боевик, приключения
    Снималось в: США, Marvel Entertainment, Marvel Studios Inc.
    Главный режиссер: Алан Тейлор
    Актеры: Крис Хемсворт, Натали Портман, Том Хиддлстон, Энтони Хопкинс, Джейми Александер, Рэй Стивенсон, Кэт Деннингс, Идрис Эльба, Стеллан Скарсгард, Рене Руссо, Кристофер Экклстон, Стэн Ли

    Сюжет фильма: Тору предстоит сразиться за спасение Земли и Девяти Миров от таинственного врага из времен, предшествовавших возникновению вселенной. После событий Тора и Мстителей главный герой борется за восстановление порядка в космосе, но древняя раса во главе с мстительным Малекитом возвращается, чтобы погрузить вселенную обратно во тьму. Столкнувшись с врагом, которому не способен противостоять ни Один, ни весь Асгард, Тор отправляется в самое рискованное путешествие, которое воссоединит его с Джейн Фостер с Земли и заставит пожертвовать всем ради спасения вселенной.

    Файл
    Качество фильма: Blu-Ray Remux (1080p)
    Информация о видео: MPEG-4 AVC, 25049 Kбит/с, 1920х1080, 23.976 кадр/с
    Информация о звуке: Русский (AC3, 6 ch, 640 Кбит/с), английский (DTS-HD MA, 8 ch, 5028 Кбит/с), (AC3, 2 ch, 192 Кбит/с)
    Размер скачиваемого торрента: 24.02 ГБ
    Время просмотра: 01:52:03
    Перевод текста: Дублированный лицензия
    Субтитры: Русские, английские

    MI
    Общее
    Уникальный идентификатор : 248770222252769992791858849526790633032 (0xBB2766EB7E5F1E71B471316D82DA3648)
    Полное имя : E:Tor.2.Tsarstvo.tmy.2013.BDRemux.1080p.mkv
    Формат : Matroska
    Версия формата : Version 2
    Размер файла : 24,0 Гбайт
    Продолжительность : 1 ч. 52 м.
    Режим общего битрейта : Переменный
    Общий поток : 30,7 Мбит/сек
    Название фильма : by_bog3417
    Дата кодирования : UTC 2014-02-13 22:20:23
    Программа кодирования : mkvmerge v6.7.0 (;Back to the Ground;) 32bit built on Jan 8 2014 15:03:17
    Библиотека кодирования : libebml v1.3.0 libmatroska v1.4.1

    Видео
    Идентификатор : 1
    Формат : AVC
    Формат/Информация : Advanced Video Codec
    Профиль формата : High@L4.1
    Параметр CABAC формата : Да
    Параметр ReFrames формата : 4 кадра
    Идентификатор кодека : V_MPEG4/ISO/AVC
    Продолжительность : 1 ч. 52 м.
    Вид битрейта : Переменный
    Максимальный битрейт : 32,5 Мбит/сек
    Ширина : 1920 пикселей
    Высота : 1080 пикселей
    Соотношение сторон : 16:9
    Режим частоты кадров : Постоянный
    Частота кадров : 23,976 кадра/сек
    Цветовое пространство : YUV
    Субдискретизация насыщенности : 4:2:0
    Битовая глубина : 8 бит
    Тип развёртки : Прогрессивная
    Default : Да
    Forced : Нет

    Аудио #1
    Идентификатор : 2
    Формат : AC-3
    Формат/Информация : Audio Coding 3
    Расширение режима : CM (complete main)
    Параметр Endianness формата : Big
    Идентификатор кодека : A_AC3
    Продолжительность : 1 ч. 52 м.
    Вид битрейта : Постоянный
    Битрейт : 640 Кбит/сек
    Каналы : 6 каналов
    Расположение каналов : Front: L C R, Side: L R, LFE
    Частота : 48,0 КГц
    Битовая глубина : 16 бит
    Метод сжатия : С потерями
    Размер потока : 513 Мбайт (2%)
    Язык : Russian
    Default : Да
    Forced : Нет

    Аудио #2
    Идентификатор : 3
    Формат : DTS
    Формат/Информация : Digital Theater Systems
    Профиль формата : MA / Core
    Режим : 16
    Параметр Endianness формата : Big
    Идентификатор кодека : A_DTS
    Продолжительность : 1 ч. 52 м.
    Вид битрейта : Переменный
    Битрейт : Неизвестно / 1509 Кбит/сек
    Каналы : 8 каналов / 6 каналов
    Расположение каналов : Front: L C R, Side: L R, Back: L R, LFE / Front: L C R, Side: L R, LFE
    Частота : 48,0 КГц
    Битовая глубина : 24 бит
    Метод сжатия : Без потерь / Lossy
    Язык : English
    Default : Нет
    Forced : Нет

    Аудио #3
    Идентификатор : 4
    Формат : AC-3
    Формат/Информация : Audio Coding 3
    Расширение режима : CM (complete main)
    Параметр Endianness формата : Big
    Идентификатор кодека : A_AC3
    Продолжительность : 1 ч. 52 м.
    Вид битрейта : Постоянный
    Битрейт : 192 Кбит/сек
    Каналы : 2 канала
    Расположение каналов : Front: L R
    Частота : 48,0 КГц
    Битовая глубина : 16 бит
    Метод сжатия : С потерями
    Размер потока : 154 Мбайт (1%)
    Заголовок : AC3 2.0 / 192 kbps / Commentary
    Язык : English
    Default : Нет
    Forced : Нет

    Текст #1
    Идентификатор : 5
    Формат : UTF-8
    Идентификатор кодека : S_TEXT/UTF8
    Идентификатор кодека/Информация : UTF-8 Plain Text
    Заголовок : Forced
    Язык : Russian
    Default : Да
    Forced : Нет

    Текст #2
    Идентификатор : 6
    Формат : UTF-8
    Идентификатор кодека : S_TEXT/UTF8
    Идентификатор кодека/Информация : UTF-8 Plain Text
    Заголовок : Full
    Язык : Russian
    Default : Нет
    Forced : Нет

    Текст #3
    Идентификатор : 7
    Формат : UTF-8
    Идентификатор кодека : S_TEXT/UTF8
    Идентификатор кодека/Информация : UTF-8 Plain Text
    Заголовок : Forced
    Язык : English
    Default : Нет
    Forced : Нет

    Текст #4
    Идентификатор : 8
    Формат : UTF-8
    Идентификатор кодека : S_TEXT/UTF8
    Идентификатор кодека/Информация : UTF-8 Plain Text
    Заголовок : SDH
    Язык : English
    Default : Нет
    Forced : Нет

    Меню
    00:00:00.000 : en:Prologue
    00:06:13.665 : en:The Nine Realms At Peace
    00:13:05.535 : en:Strange Happenings In London
    00:18:40.995 : en:The Aether Awakens
    00:24:56.829 : en:Welcome To Asgard
    00:29:07.663 : en:The Last Of The Kursed
    00:41:33.366 : en:Attack On Asgard
    00:49:40.227 : en:We Are Not Immortal
    00:55:56.144 : en:Desperate Times
    01:00:08.897 : en:Escape From Asgard
    01:08:12.672 : en:Brothers In Arms
    01:12:39.897 : en:Return To The Dark World
    01:21:34.473 : en:Follow The Signs
    01:26:22.094 : en:Thor vs. Malekith vs. The Convergence
    01:33:58.800 : en:The Aether Unleashed
    01:38:31.656 : en:Born To Be A King
    01:41:49.520 : en:End Credits


    Скриншоты для ознакомления



    Размер скачиваемого торрента: 24.02 GB (25789526100 Bytes)

    Тор 2: Царство тьмы / Thor: The Dark World (2013) BDRemux 1080p | Лицензия скачать через торрент бесплатно
    загрузка...
    Рейтинг →
     (голосов: 1, оценка 4/5, голосовать можно 1 раз )

    Другие торренты по теме:

  • Тор 2 Царство тьмы (2013)
  • Тор 2: Царство тьмы / Thor: The Dark World (2013) DCPrip | 3D-Video | Трейлер скачать через торрент бесплатно
  • Тор 2: Царство тьмы / Thor: The Dark World (2013) HDTVRip 1080p | Трейлер скачать через торрент бесплатно
  • Тор 2: Царство тьмы / Thor: The Dark World (2013) TS
  • Тор 2: Царство тьмы / Thor: The Dark World (2013) WEBRip-AVC | Звук с TS скачать через торрент бесплатно
  • Тор 2: Царство тьмы / Thor: The Dark World (2013) WEBRip | Звук с TS скачать через торрент бесплатно
  • Тор 2: Царство тьмы / Thor: The Dark World (2013) WEB-DL 720p | Звук с TS скачать через торрент бесплатно
  • Тор 2: Царство тьмы / Thor: The Dark World (2013) WEB-DLRip | Звук с TS скачать через торрент бесплатно


    • Комментарии (0):

      Информация

      Информация

        Посетители, находящиеся в группе Гости, не могут оставлять комментарии в данной новости.

        ↓ Меню



        ↓ Опрос

        А Вы добавили сайт в закладки?
        Да
        Не


        Top 10 за месяц (Фильмы)