.
Авторизация | Регистрация
Хочешь лучшие торренты? Добавь свой email!
Добавить
» » Тор 2: Царство тьмы / Thor: The Dark World (2013) BDRip 720p | Лицензия скачать через торрент бесплатно


    Тор 2: Царство тьмы / Thor: The Dark World (2013) BDRip 720p | Лицензия скачать через торрент бесплатно

    Опубликовал: Админ | Дата: 27-02-2015, 11:10 | Просмотров: 285



    Детально о кино
    Русское название: Тор 2: Царство тьмы
    Русское название в мировом прокате: Thor: The Dark World
    Создали в: 2013
    Категория жанра: Фэнтези, боевик, приключения
    Снималось в: США, Marvel Entertainment, Marvel Studios Inc.
    Главный режиссер: Алан Тейлор
    Актеры: Крис Хемсворт, Натали Портман, Том Хиддлстон, Энтони Хопкинс, Джейми Александер, Рэй Стивенсон, Кэт Деннингс, Идрис Эльба, Стеллан Скарсгард, Рене Руссо, Кристофер Экклстон, Стэн Ли

    Сюжет фильма: Тору предстоит сразиться за спасение Земли и Девяти Миров от таинственного врага из времен, предшествовавших возникновению вселенной. После событий Тора и Мстителей главный герой борется за восстановление порядка в космосе, но древняя раса во главе с мстительным Малекитом возвращается, чтобы погрузить вселенную обратно во тьму. Столкнувшись с врагом, которому не способен противостоять ни Один, ни весь Асгард, Тор отправляется в самое рискованное путешествие, которое воссоединит его с Джейн Фостер с Земли и заставит пожертвовать всем ради спасения вселенной.

    Файл
    Качество фильма: BDRip (720р)
    Информация о видео: MPEG-4 AVC, 3565 Кбит/с, 1280x534
    Информация о звуке: Русский (AC3, 6 ch, 640 Кбит/с), английский (DTS, 6 ch, 1510 кбит/c), (AC3, 2 ch, 192 Кбит/с)
    Размер скачиваемого торрента: 4.63 ГБ
    Время просмотра: 01:52:08
    Перевод текста: Дублированный лицензия
    Субтитры: Русские, английские

    MI
    Общее
    Уникальный идентификатор : 207391953859686938495102656431582529222 (0x9C063CC75121180CA36D7A3F90FEC6C6)
    Полное имя : C:Tor.2.Tsarstvo.tmy.2013.BDRip.720p.by_bog3417.mkv
    Формат : Matroska
    Версия формата : Version 2
    Размер файла : 4,63 Гбайт
    Продолжительность : 1 ч. 52 м.
    Общий поток : 5913 Кбит/сек
    Название фильма : by_bog3417
    Дата кодирования : UTC 2014-02-13 22:11:25
    Программа кодирования : mkvmerge v6.7.0 (;Back to the Ground;) 32bit built on Jan 8 2014 15:03:17
    Библиотека кодирования : libebml v1.3.0 libmatroska v1.4.1

    Видео
    Идентификатор : 1
    Формат : AVC
    Формат/Информация : Advanced Video Codec
    Профиль формата : High@L4.1
    Параметр CABAC формата : Да
    Параметр ReFrames формата : 11 кадров
    Идентификатор кодека : V_MPEG4/ISO/AVC
    Продолжительность : 1 ч. 52 м.
    Битрейт : 3569 Кбит/сек
    Ширина : 1280 пикселей
    Высота : 534 пикселя
    Соотношение сторон : 2,40:1
    Режим частоты кадров : Постоянный
    Частота кадров : 23,976 кадра/сек
    Цветовое пространство : YUV
    Субдискретизация насыщенности : 4:2:0
    Битовая глубина : 8 бит
    Тип развёртки : Прогрессивная
    Бит/(Пиксели*Кадры) : 0.218
    Размер потока : 2,70 Гбайт (58%)
    Библиотека кодирования : x264 core 138 r2358 9e941d1
    Настройки программы : cabac=1 / ref=11 / deblock=1:-3:-3 / analyse=0x3:0x133 / me=umh / subme=11 / psy=1 / psy_rd=1.00:0.10 / mixed_ref=1 / me_range=48 / chroma_me=1 / trellis=2 / 8x8dct=1 / cqm=0 / deadzone=21,11 / fast_pskip=0 / chroma_qp_offset=-3 / threads=8 / lookahead_threads=2 / sliced_threads=0 / nr=0 / decimate=0 / interlaced=0 / bluray_compat=0 / stitchable=1 / constrained_intra=0 / bframes=10 / b_pyramid=2 / b_adapt=2 / b_bias=0 / direct=3 / weightb=1 / open_gop=0 / weightp=2 / keyint=240 / keyint_min=23 / scenecut=40 / intra_refresh=0 / rc_lookahead=40 / rc=2pass / mbtree=1 / bitrate=3569 / ratetol=1.0 / qcomp=0.60 / qpmin=10 / qpmax=51 / qpstep=4 / cplxblur=20.0 / qblur=0.5 / ip_ratio=1.40 / aq=1:1.00
    Язык : English
    Default : Да
    Forced : Нет

    Аудио #1
    Идентификатор : 2
    Формат : AC-3
    Формат/Информация : Audio Coding 3
    Расширение режима : CM (complete main)
    Параметр Endianness формата : Big
    Идентификатор кодека : A_AC3
    Продолжительность : 1 ч. 52 м.
    Вид битрейта : Постоянный
    Битрейт : 640 Кбит/сек
    Каналы : 6 каналов
    Расположение каналов : Front: L C R, Side: L R, LFE
    Частота : 48,0 КГц
    Битовая глубина : 16 бит
    Метод сжатия : С потерями
    Размер потока : 513 Мбайт (11%)
    Язык : Russian
    Default : Да
    Forced : Нет

    Аудио #2
    Идентификатор : 3
    Формат : DTS
    Формат/Информация : Digital Theater Systems
    Режим : 16
    Параметр Endianness формата : Big
    Идентификатор кодека : A_DTS
    Продолжительность : 1 ч. 52 м.
    Вид битрейта : Постоянный
    Битрейт : 1509 Кбит/сек
    Каналы : 6 каналов
    Расположение каналов : Front: L C R, Side: L R, LFE
    Частота : 48,0 КГц
    Битовая глубина : 24 бит
    Метод сжатия : С потерями
    Размер потока : 1,18 Гбайт (26%)
    Заголовок : DTS 5.1 / 1536 kbps / Original
    Язык : English
    Default : Нет
    Forced : Нет

    Аудио #3
    Идентификатор : 4
    Формат : AC-3
    Формат/Информация : Audio Coding 3
    Расширение режима : CM (complete main)
    Параметр Endianness формата : Big
    Идентификатор кодека : A_AC3
    Продолжительность : 1 ч. 52 м.
    Вид битрейта : Постоянный
    Битрейт : 192 Кбит/сек
    Каналы : 2 канала
    Расположение каналов : Front: L R
    Частота : 48,0 КГц
    Битовая глубина : 16 бит
    Метод сжатия : С потерями
    Размер потока : 154 Мбайт (3%)
    Заголовок : AC3 2.0 / 192 kbps / Commentary
    Язык : English
    Default : Нет
    Forced : Нет

    Текст #1
    Идентификатор : 5
    Формат : UTF-8
    Идентификатор кодека : S_TEXT/UTF8
    Идентификатор кодека/Информация : UTF-8 Plain Text
    Заголовок : Forced
    Язык : Russian
    Default : Да
    Forced : Нет

    Текст #2
    Идентификатор : 6
    Формат : UTF-8
    Идентификатор кодека : S_TEXT/UTF8
    Идентификатор кодека/Информация : UTF-8 Plain Text
    Заголовок : Full
    Язык : Russian
    Default : Нет
    Forced : Нет

    Текст #3
    Идентификатор : 7
    Формат : UTF-8
    Идентификатор кодека : S_TEXT/UTF8
    Идентификатор кодека/Информация : UTF-8 Plain Text
    Заголовок : Forced
    Язык : English
    Default : Нет
    Forced : Нет

    Текст #4
    Идентификатор : 8
    Формат : UTF-8
    Идентификатор кодека : S_TEXT/UTF8
    Идентификатор кодека/Информация : UTF-8 Plain Text
    Заголовок : SDH
    Язык : English
    Default : Нет
    Forced : Нет

    Меню
    00:00:00.000 : en:Prologue
    00:06:13.665 : en:The Nine Realms At Peace
    00:13:05.535 : en:Strange Happenings In London
    00:18:40.995 : en:The Aether Awakens
    00:24:56.829 : en:Welcome To Asgard
    00:29:07.663 : en:The Last Of The Kursed
    00:41:33.366 : en:Attack On Asgard
    00:49:40.227 : en:We Are Not Immortal
    00:55:56.144 : en:Desperate Times
    01:00:08.897 : en:Escape From Asgard
    01:08:12.672 : en:Brothers In Arms
    01:12:39.897 : en:Return To The Dark World
    01:21:34.473 : en:Follow The Signs
    01:26:22.094 : en:Thor vs. Malekith vs. The Convergence
    01:33:58.800 : en:The Aether Unleashed
    01:38:31.656 : en:Born To Be A King
    01:41:49.520 : en:End Credits


    Скриншоты для ознакомления



    Размер скачиваемого торрента: 4.63 GB (4969317984 Bytes)

    Тор 2: Царство тьмы / Thor: The Dark World (2013) BDRip 720p | Лицензия скачать через торрент бесплатно
    загрузка...
    Рейтинг →
     (голосов: 1, оценка 3/5, голосовать можно 1 раз )

    Другие торренты по теме:

  • Василий Сахаров - Принц Тор 2. Принц Тор (2017) MP3
  • Тор 2 Царство тьмы (2013)
  • Тор 2: Царство тьмы / Thor: The Dark World (2013) DCPrip | 3D-Video | Трейлер скачать через торрент бесплатно
  • Тор 2: Царство тьмы / Thor: The Dark World (2013) HDTVRip 1080p | Трейлер скачать через торрент бесплатно
  • Тор 2: Царство тьмы / Thor: The Dark World (2013) TS
  • Тор 2: Царство тьмы / Thor: The Dark World (2013) WEBRip-AVC | Звук с TS скачать через торрент бесплатно
  • Тор 2: Царство тьмы / Thor: The Dark World (2013) WEBRip | Звук с TS скачать через торрент бесплатно
  • Тор 2: Царство тьмы / Thor: The Dark World (2013) WEB-DL 720p | Звук с TS скачать через торрент бесплатно


    • Комментарии (0):

      Информация

      Информация

        Посетители, находящиеся в группе Гости, не могут оставлять комментарии в данной новости.

        ↓ Меню



        ↓ Опрос

        А Вы добавили сайт в закладки?
        Да
        Не


        Top 10 за месяц (Фильмы)