.
Авторизация | Регистрация
Хочешь лучшие торренты? Добавь свой email!
Добавить
» » Зайцев 1 (2014) WEB-DLRip от Generalfilm | КПК скачать через торрент бесплатно




    Зайцев 1 (2014) WEB-DLRip от Generalfilm | КПК скачать через торрент бесплатно

    Опубликовал: Админ | Дата: 27-02-2015, 11:10 | Просмотров: 484



    Детально о кино
    Русское название в мировом прокате: Зайцев 1
    Создали в: 2014
    Категория жанра: Комедия, приключения
    Главный режиссер: Максим Пежемский
    Актеры: Жерар Депардье, Михаил Галустян, Филипп Котов, Иван Громов, Наталья Костенева, Александр Солдаткин, Надежда Иванова, Марина Лычкина, Алексей Коновалов, Руслан Сасин, Мария Щербинина

    Сюжет фильма:
    На ТНТ - первый ситком о любви и шизофрении! Что делать, если ты студент-очкарик, влюбленный в самую красивую девушку в институте? Можно ли управлять своим либидо, если оно сбежало от тебя еще в шесть лет? И самое главное - где лечат раздвоение личности?



    Снималось в: Россия
    Киностудия: ТНТ
    Время просмотра: 16 х ~ 00:23:00
    Перевод текста: Не трбуется

    Файл
    Тип видео: MP4
    Качество фильма: WEB-DLRip | КПК
    Информация о видео: MPEG-4 AVC (x264), 640x360, ~500 kbps, 25.000 fps
    Информация о звуке: AAC LC, 44.1 KHz, 2 ch, 128 Kbps
    Субтитры: Нет

    Семпл

    Скриншоты для ознакомления

    MI
    General
    Complete name : E:KinoZajcev. 1.AVC.KPK.GeneralfilmZajcev. 1.S03.2014.AVC.WEB-DLRip.KPK.GeneralfilmZajcev. 1.s03e06.2014.AVC.WEB-DLRip.KPK.Generalfilm.mp4
    Format : MPEG-4
    Format profile : Base Media
    Codec ID : isom
    File size : 99.4 MiB
    Duration : 22mn 1s
    Overall bit rate mode : Variable
    Overall bit rate : 631 Kbps
    Encoded date : UTC 2014-02-07 16:39:06
    Tagged date : UTC 2014-02-07 16:39:06

    Video
    ID : 1
    Format : AVC
    Format/Info : Advanced Video Codec
    Format profile : Baseline@L4.1
    Format settings, CABAC : No
    Format settings, ReFrames : 6 frames
    Codec ID : avc1
    Codec ID/Info : Advanced Video Coding
    Duration : 22mn 1s
    Bit rate : 500 Kbps
    Maximum bit rate : 5 813 Kbps
    Width : 640 pixels
    Height : 360 pixels
    Display aspect ratio : 16:9
    Frame rate mode : Constant
    Frame rate : 25.000 fps
    Color space : YUV
    Chroma subsampling : 4:2:0
    Bit depth : 8 bits
    Scan type : Progressive
    Bits/(Pixel*Frame) : 0.087
    Stream size : 78.8 MiB (79%)
    Writing library : x264 core 125 r2200 999b753
    Encoding settings : cabac=0 / ref=6 / deblock=1:-1:-1 / analyse=0x1:0x111 / me=umh / subme=7 / psy=1 / psy_rd=1.00:0.00 / mixed_ref=0 / me_range=16 / chroma_me=1 / trellis=1 / 8x8dct=0 / cqm=0 / deadzone=21,11 / fast_pskip=0 / chroma_qp_offset=-2 / threads=12 / lookahead_threads=2 / sliced_threads=0 / nr=0 / decimate=1 / interlaced=0 / bluray_compat=0 / constrained_intra=0 / bframes=0 / weightp=0 / keyint=250 / keyint_min=25 / scenecut=40 / intra_refresh=0 / rc_lookahead=60 / rc=2pass / mbtree=1 / bitrate=500 / ratetol=1.0 / qcomp=0.60 / qpmin=0 / qpmax=69 / qpstep=4 / cplxblur=20.0 / qblur=0.5 / ip_ratio=1.40 / aq=1:1.00
    Encoded date : UTC 2014-02-07 16:39:06
    Tagged date : UTC 2014-02-07 16:39:08

    Audio
    ID : 2
    Format : AAC
    Format/Info : Advanced Audio Codec
    Format profile : LC
    Codec ID : 40
    Duration : 22mn 1s
    Bit rate mode : Variable
    Bit rate : 128 Kbps
    Maximum bit rate : 145 Kbps
    Channel count : 2 channels
    Channel positions : Front: L R
    Sampling rate : 44.1 KHz
    Compression mode : Lossy
    Stream size : 20.2 MiB (20%)
    Encoded date : UTC 2014-02-07 16:39:07
    Tagged date : UTC 2014-02-07 16:39:08

    Релиз подготовил:
    Залил: toys_watch
    Размер скачиваемого торрента: 1.65 GB (1768250214 Bytes)

    Зайцев 1 (2014) WEB-DLRip от Generalfilm | КПК скачать через торрент бесплатно
    загрузка...
    Рейтинг →
     (голосов: 1, оценка 4/5, голосовать можно 1 раз )

    Другие торренты по теме:

  • Зайцев 1 (2014) WEB-DL 720p
  • Зайцев 1 (2014) WEB-DLRip от HitWay
  • Зайцев 1 (2014) SATRip
  • Зайцев 1 (2014) WEB-DL 720p от Mediaclub скачать через торрент бесплатно
  • Зайцев 1 (2014) WEB-DL 720p от MegaPeer скачать через торрент бесплатно
  • Зайцев 1 (2014) WEB-DLRip
  • Зайцев 1 (2014) WEB-DLRip от HitWay
  • Сборник - TOP-100 Зайцев НЕТ (1.02.2014) MP3


    • Комментарии (0):

      Информация

      Информация

        Посетители, находящиеся в группе Гости, не могут оставлять комментарии в данной новости.

        ↓ Меню



        ↓ Опрос

        А Вы добавили сайт в закладки?
        Да
        Не


        Top 10 за месяц (Фильмы)