.
Авторизация | Регистрация
» » Спасибо за обмен / Thanks for Sharing (2012) BDRip 1080p | P торрент скачать бесплатно




    Спасибо за обмен / Thanks for Sharing (2012) BDRip 1080p | P торрент скачать бесплатно

    Опубликовал: Админ | Дата: 27-02-2015, 11:10 | Просмотров: 270



    Русское название: Спасибо за обмен
    Русское название в мировом прокате: Thanks for Sharing
    Создали в: 2012
    Категория жанра: Комедия, драма
    Главный режиссер: Стюарт Блумберг
    Актеры: Марк Руффало, Тим Роббинс, Гвинет Пэлтроу, Джош Гад, Джоэли Ричардсон, Патрик Фьюджит, Кэрол Кейн, Пинк, Михаэлла Уоткинс, Эмили Миде, Кэрол Кейн

    Сюжет: Три сексоголика решили бороться с пагубной зависимостью. С этой целью они отправляются в специальную клинику, где в рамках лечения должны пройти 12 этапов реабилитационного процесса. Дело это, как оказывается, непростое, но чего не сделаешь ради того, чтобы оправиться от сексуальной зависимости и наладить конструктивные отношения с окружающими, пожалуй, в первый раз в жизни…

    Снималось в: США, Class 5 Films, Olympus Pictures
    Время просмотра: 01:52:39
    Перевод текста: Профессиональный многоголосый

    Качество фильма: BDRip 1080p
    Информация о видео: MPEG-4 AVC, 11600 Кбит/с, 1920x1080
    Информация о звуке rus: АС3, 2 ch, 192 Кбит/с
    Информация о звуке eng: АС3, 6 ch, 448 Кбит/с

    Инфо
    Полное имя : E:Spasibo.za.obmen.2012.BDRip.1080p.tahiy.mkv
    Формат : Matroska
    Версия формата : Version 4 / Version 2
    Размер файла : 9,54 Гбайт
    Продолжительность : 1 ч. 52 м.
    Общий поток : 12,1 Мбит/сек
    Название фильма : Spasibo.za.obmen.2012.BDRip.1080p.tahiy
    Дата кодирования : UTC 2014-02-15 20:55:18
    Программа кодирования : mkvmerge v6.5.0 (;Isn;t she lovely;) built on Oct 20 2013 12:50:05
    Библиотека кодирования : libebml v1.3.0 libmatroska v1.4.1

    Видео
    Идентификатор : 1
    Формат : AVC
    Формат/Информация : Advanced Video Codec
    Профиль формата : High@L4.1
    Параметр CABAC формата : Да
    Параметр ReFrames формата : 4 кадра
    Идентификатор кодека : V_MPEG4/ISO/AVC
    Продолжительность : 1 ч. 52 м.
    Битрейт : 11,6 Мбит/сек
    Ширина : 1920 пикселей
    Высота : 1080 пикселей
    Соотношение сторон : 16:9
    Режим частоты кадров : Постоянный
    Частота кадров : 23,976 кадра/сек
    Цветовое пространство : YUV
    Субдискретизация насыщенности : 4:2:0
    Битовая глубина : 8 бит
    Тип развёртки : Прогрессивная
    Бит/(Пиксели*Кадры) : 0.232
    Размер потока : 8,85 Гбайт (93%)
    Заголовок : Spasibo.za.obmen.2012.BDRip.1080p.tahiy
    Библиотека кодирования : x264 core 130 r2273 b3065e6
    Настройки программы : cabac=1 / ref=4 / deblock=1:-2:-2 / analyse=0x3:0x113 / me=umh / subme=10 / psy=1 / psy_rd=1.00:0.20 / mixed_ref=1 / me_range=32 / chroma_me=1 / trellis=2 / 8x8dct=1 / cqm=0 / deadzone=21,11 / fast_pskip=0 / chroma_qp_offset=-3 / threads=6 / lookahead_threads=1 / sliced_threads=0 / nr=0 / decimate=0 / interlaced=0 / bluray_compat=0 / constrained_intra=0 / bframes=8 / b_pyramid=2 / b_adapt=2 / b_bias=0 / direct=3 / weightb=1 / open_gop=0 / weightp=2 / keyint=240 / keyint_min=23 / scenecut=40 / intra_refresh=0 / rc_lookahead=40 / rc=2pass / mbtree=0 / bitrate=11552 / ratetol=1.0 / qcomp=0.60 / qpmin=0 / qpmax=69 / qpstep=4 / cplxblur=20.0 / qblur=0.5 / vbv_maxrate=50000 / vbv_bufsize=62500 / nal_hrd=none / ip_ratio=1.40 / pb_ratio=1.30 / aq=1:1.00
    Язык : English
    Default : Да
    Forced : Нет

    Аудио #1
    Идентификатор : 2
    Формат : AC-3
    Формат/Информация : Audio Coding 3
    Расширение режима : CM (complete main)
    Параметр Endianness формата : Big
    Идентификатор кодека : A_AC3
    Продолжительность : 1 ч. 52 м.
    Вид битрейта : Постоянный
    Битрейт : 192 Кбит/сек
    Каналы : 2 канала
    Расположение каналов : Front: L R
    Частота : 48,0 КГц
    Битовая глубина : 16 бит
    Метод сжатия : С потерями
    Размер потока : 155 Мбайт (2%)
    Заголовок : Профессиональный многоголосый
    Язык : Russian
    Default : Да
    Forced : Нет

    Аудио #2
    Идентификатор : 3
    Формат : AC-3
    Формат/Информация : Audio Coding 3
    Расширение режима : CM (complete main)
    Параметр Endianness формата : Big
    Идентификатор кодека : A_AC3
    Продолжительность : 1 ч. 52 м.
    Вид битрейта : Постоянный
    Битрейт : 448 Кбит/сек
    Каналы : 6 каналов
    Расположение каналов : Front: L C R, Side: L R, LFE
    Частота : 48,0 КГц
    Битовая глубина : 16 бит
    Метод сжатия : С потерями
    Размер потока : 361 Мбайт (4%)
    Язык : English
    Default : Нет
    Forced : Нет

    Меню
    00:00:00.000 : en:Chapter 1
    00:06:33.184 : en:Chapter 2
    00:13:25.179 : en:Chapter 3
    00:20:34.858 : en:Chapter 4
    00:26:10.902 : en:Chapter 5
    00:32:39.040 : en:Chapter 6
    00:40:52.199 : en:Chapter 7
    00:46:01.425 : en:Chapter 8
    00:51:49.981 : en:Chapter 9
    01:00:08.396 : en:Chapter 10
    01:07:12.111 : en:Chapter 11
    01:13:02.753 : en:Chapter 12
    01:20:40.460 : en:Chapter 13
    01:26:54.626 : en:Chapter 14
    01:32:51.357 : en:Chapter 15
    01:46:46.691 : en:Chapter 16




    Размер скачиваемого торрента: 9.54 GB (10247043072 Bytes)

    Спасибо за обмен / Thanks for Sharing (2012) BDRip 1080p | P торрент скачать бесплатно
    загрузка...
    Рейтинг →
     (голосов: 1, оценка 4/5, голосовать можно 1 раз )

    Другие торренты по теме:



      Комментарии (0):

      Информация

      Информация

        Посетители, находящиеся в группе Гости, не могут оставлять комментарии в данной новости.

        ↓ Меню



        ↓ Опрос

        А Вы добавили сайт в закладки?
        Да
        Не


        Top 10 за неделю (Фильмы)