.
Авторизация | Регистрация
Хочешь лучшие торренты? Добавь свой email!
Добавить
» » Гравитация / Gravity (2013) BDRip-AVC | Лицензия торрент скачать бесплатно




    Гравитация / Gravity (2013) BDRip-AVC | Лицензия торрент скачать бесплатно

    Опубликовал: Админ | Дата: 27-02-2015, 11:10 | Просмотров: 232



    Детально о кино
    Русское название: Гравитация
    Русское название в мировом прокате: Gravity
    Создали в: 2013
    Категория жанра: фантастика, триллер, драма
    Главный режиссер: Альфонсо Куарон
    Актеры: Сандра Баллок, Джордж Клуни, Эд Харрис, Эрик Мишелс, Башер Саваж и др.

    Сюжет фильма: Главные герои картины Гравитация, астронавты НАСА Райан Стоун и Мэтт Ковальский, находящиеся на космической станции, заняты ремонтом телескопа Хаббл в открытом космосе, когда получают команду вернуться обратно на корабль – в их сторону движется настоящая лавина космического мусора. Но прежде, чем они успевают добраться до корабля, налетевшие обломки спутника становятся причиной гибели всего остального экипажа. Оставшись одни в открытом космосе на орбите Земли, астронавты прилагают отчаянные усилия, чтобы вернуться на родную планету.



    Снималось в: США
    Время просмотра: 01:30:58
    Перевод текста: Профессиональный (полное дублирование) - Лицензия

    Файл
    Качество фильма: BDRip-AVC
    Тип видео: MKV
    Информация о видео: H.264/MPEG-4 AVC, 3239 Кбит/сек, 1056x440 (2.40:1), 23.976 кадра/сек, 0.291 Бит/(Пиксели*Кадры)
    Информация о звуке Rus: AC3, 48.0 КГц, 6 каналов , 448 Кбит/сек
    Информация о звуке Ukr: AC3, 48.0 КГц, 6 каналов , 448 Кбит/сек
    Информация о звуке Eng: AC3, 48.0 КГц, 6 каналов, 448 Кбит/сек
    Субтитры: Русские (полные форс.), украинские, английские (Forced Full SDH SDH-Colored)
    Навигация по главам: Есть

    MediaInfo:
    Общее
    Уникальный идентификатор : 253875986411575969617110723284212153049 (0xBEFEBC8745AF8A78A2BB58F13A787AD9)
    Полное имя : Gravity. (2013) BDRip-AVC.mkv
    Формат : Matroska
    Версия формата : Version 2
    Размер файла : 2,91 Гбайт
    Продолжительность : 1 ч. 30 м.
    Общий поток : 4575 Кбит/сек
    Название фильма : -=LEONARDO=-
    Дата кодирования : UTC 2014-02-15 10:58:09
    Программа кодирования : mkvmerge v5.8.0 (;No Sleep / Pillow;) built on Sep 2 2012 15:37:04
    Библиотека кодирования : libebml v1.2.3 libmatroska v1.3.0

    Видео
    Идентификатор : 1
    Формат : AVC
    Формат/Информация : Advanced Video Codec
    Профиль формата : High@L4.1
    Параметр CABAC формата : Да
    Параметр ReFrames формата : 11 кадров
    Идентификатор кодека : V_MPEG4/ISO/AVC
    Продолжительность : 1 ч. 30 м.
    Битрейт : 3239 Кбит/сек
    Ширина : 1056 пикселей
    Высота : 440 пикселей
    Соотношение сторон : 2,40:1
    Режим частоты кадров : Постоянный
    Частота кадров : 23,976 кадра/сек
    Цветовое пространство : YUV
    Субдискретизация насыщенности : 4:2:0
    Битовая глубина : 8 бит
    Тип развёртки : Прогрессивная
    Бит/(Пиксели*Кадры) : 0.291
    Размер потока : 2,00 Гбайт (69%)
    Библиотека кодирования : x264 core 142 r2389 956c8d8
    Настройки программы : cabac=1 / ref=11 / deblock=1:-3:-3 / analyse=0x3:0x113 / me=umh / subme=10 / psy=1 / psy_rd=1.00:0.15 / mixed_ref=1 / me_range=32 / chroma_me=1 / trellis=2 / 8x8dct=1 / cqm=0 / deadzone=21,11 / fast_pskip=0 / chroma_qp_offset=-3 / threads=6 / lookahead_threads=1 / sliced_threads=0 / nr=0 / decimate=0 / interlaced=0 / bluray_compat=0 / constrained_intra=0 / bframes=8 / b_pyramid=2 / b_adapt=2 / b_bias=0 / direct=3 / weightb=1 / open_gop=0 / weightp=2 / keyint=240 / keyint_min=23 / scenecut=40 / intra_refresh=0 / rc=2pass / mbtree=0 / bitrate=3239 / ratetol=2.0 / qcomp=0.70 / qpmin=0 / qpmax=69 / qpstep=4 / cplxblur=20.0 / qblur=0.5 / ip_ratio=1.40 / pb_ratio=1.30 / aq=2:0.70
    Язык : English
    Default : Да
    Forced : Нет

    Аудио #1
    Идентификатор : 2
    Формат : AC-3
    Формат/Информация : Audio Coding 3
    Расширение режима : CM (complete main)
    Параметр Endianness формата : Big
    Идентификатор кодека : A_AC3
    Продолжительность : 1 ч. 30 м.
    Вид битрейта : Постоянный
    Битрейт : 448 Кбит/сек
    Каналы : 6 каналов
    Расположение каналов : Front: L C R, Side: L R, LFE
    Частота : 48,0 КГц
    Битовая глубина : 16 бит
    Метод сжатия : С потерями
    Размер потока : 292 Мбайт (10%)
    Заголовок : RUS | 448Kbps
    Язык : Russian
    Default : Да
    Forced : Да

    Аудио #2
    Идентификатор : 3
    Формат : AC-3
    Формат/Информация : Audio Coding 3
    Расширение режима : CM (complete main)
    Параметр Endianness формата : Big
    Идентификатор кодека : A_AC3
    Продолжительность : 1 ч. 30 м.
    Вид битрейта : Постоянный
    Битрейт : 448 Кбит/сек
    Каналы : 6 каналов
    Расположение каналов : Front: L C R, Side: L R, LFE
    Частота : 48,0 КГц
    Битовая глубина : 16 бит
    Метод сжатия : С потерями
    Размер потока : 292 Мбайт (10%)
    Заголовок : UKR | 448Kbps
    Язык : Ukrainian
    Default : Нет
    Forced : Нет

    Аудио #3
    Идентификатор : 4
    Формат : AC-3
    Формат/Информация : Audio Coding 3
    Расширение режима : CM (complete main)
    Параметр Endianness формата : Big
    Идентификатор кодека : A_AC3
    Продолжительность : 1 ч. 30 м.
    Вид битрейта : Постоянный
    Битрейт : 448 Кбит/сек
    Каналы : 6 каналов
    Расположение каналов : Front: L C R, Side: L R, LFE
    Частота : 48,0 КГц
    Битовая глубина : 16 бит
    Метод сжатия : С потерями
    Размер потока : 292 Мбайт (10%)
    Заголовок : ENG | 448Kbps
    Язык : English
    Default : Нет
    Forced : Нет

    Текст #1
    Идентификатор : 5
    Формат : UTF-8
    Идентификатор кодека : S_TEXT/UTF8
    Идентификатор кодека/Информация : UTF-8 Plain Text
    Заголовок : RUS | Forced
    Язык : Russian
    Default : Да
    Forced : Да

    Текст #2
    Идентификатор : 6
    Формат : UTF-8
    Идентификатор кодека : S_TEXT/UTF8
    Идентификатор кодека/Информация : UTF-8 Plain Text
    Заголовок : RUS | Full
    Язык : Russian
    Default : Нет
    Forced : Нет

    Текст #3
    Идентификатор : 7
    Формат : UTF-8
    Идентификатор кодека : S_TEXT/UTF8
    Идентификатор кодека/Информация : UTF-8 Plain Text
    Заголовок : UKR | Full
    Язык : Ukrainian
    Default : Нет
    Forced : Нет

    Текст #4
    Идентификатор : 8
    Формат : UTF-8
    Идентификатор кодека : S_TEXT/UTF8
    Идентификатор кодека/Информация : UTF-8 Plain Text
    Заголовок : ENG | SDH
    Язык : English
    Default : Нет
    Forced : Нет

    Текст #5
    Идентификатор : 9
    Формат : UTF-8
    Идентификатор кодека : S_TEXT/UTF8
    Идентификатор кодека/Информация : UTF-8 Plain Text
    Заголовок : ENG | Full
    Язык : English
    Default : Нет
    Forced : Нет

    Текст #6
    Идентификатор : 10
    Формат : UTF-8
    Идентификатор кодека : S_TEXT/UTF8
    Идентификатор кодека/Информация : UTF-8 Plain Text
    Заголовок : SDH-Colored
    Язык : English
    Default : Нет
    Forced : Нет

    Меню
    00:00:00.000 : en:00:00:00.000
    00:13:08.830 : en:00:13:08.830
    00:21:33.542 : en:00:21:33.542
    00:29:12.668 : en:00:29:12.668
    00:39:59.856 : en:00:39:59.856
    00:48:49.051 : en:00:48:49.051
    00:57:00.667 : en:00:57:00.667
    01:08:08.418 : en:01:08:08.418
    01:15:27.148 : en:01:15:27.148
    01:23:50.567 : en:01:23:50.567

    Скриншоты для ознакомления:


    Релиз подготовил:
    Размер скачиваемого торрента: 2.91 GB (3121509185 Bytes)

    Гравитация / Gravity (2013) BDRip-AVC | Лицензия торрент скачать бесплатно
    загрузка...
    Рейтинг →
     (голосов: 1, оценка 5/5, голосовать можно 1 раз )

    Другие торренты по теме:

  • Гравитация / Притяжение / Gravity (2012) WEB-DLRip, HDTVRip | L2
  • OST - Гравитация / Gravity (2013) MP3 скачать через торрент бесплатно
  • Гравитация / Gravity (2013) CAMRip от INTERCINEMA скачать через торрент бесплатно
  • Гравитация / Gravity (2013) CAMRip *PROPER* от INTERCINEMA
  • Гравитация / Gravity (2013) DVDScr | Звук с TS
  • Гравитация / Gravity (2013) DVDScr | Чистый звук скачать через торрент бесплатно
  • Гравитация / Gravity (2013) WEBRip | Чистый звук скачать через торрент бесплатно
  • Гравитация / Gravity (2013) WEB-DLRip от New-Team | Чистый звук


    • Комментарии (0):

      Информация

      Информация

        Посетители, находящиеся в группе Гости, не могут оставлять комментарии в данной новости.

        ↓ Меню



        ↓ Опрос

        А Вы добавили сайт в закладки?
        Да
        Не


        Top 10 за месяц (Фильмы)