.
Авторизация | Регистрация
Хочешь лучшие торренты? Добавь свой email!
Добавить
» » Ангар 18 / Hangar 18 (1980) DVDRip от New-Team | D торрент скачать бесплатно




    Ангар 18 / Hangar 18 (1980) DVDRip от New-Team | D торрент скачать бесплатно

    Опубликовал: Админ | Дата: 27-02-2015, 11:10 | Просмотров: 330



    Снималось в: США / Sunn Classic Pictures Inc.
    Категория жанра: фантастика, боевик, триллер, биография
    Создали в: 1980
    Время просмотра: 01:37:30

    Перевод текста: Профессиональный (дублированный) - Советский дубляж (со вставками двухголосого закадрового)

    Субтитры подготовлены: нет
    Оригинальная аудиодорожка: нет

    Главный режиссер: Джеймс Л. Конуэй / James L. Conway

    Актеры: Гари Коллинз, Роберт Вон, Джеймс Хэмптон, Филип Эбботт, Джозеф Кампанелла, Памела Беллвуд, Том Хэллик, Стивен Китс, Уильям Шэллерт, Дэррен МакГэвин...

    Роли дублировали: Игорь Окрепилов, Александр Демьяненко, Вячеслав Захаров, Юрий Дедович, Владимир Татосов...

    Сюжет: Во время запуска спутника с космического челнока NASA происходит катастрофа, в результате которой погибает один из астронавтов. Как потом выясняется, причиной взрыва становится столкновение спутника с НЛО. Неопознанный объект совершает аварийную посадку на Земле и попадает в руки спецслужб правительства. Небольшая группа военных и политиков, опасающихся ненужной и рискованной шумихи вокруг этого ЧП накануне президентских выборов, делают все, чтобы сохранить происшествие в тайне. Вернувшихся на землю астронавтов изолируют, а НЛО отправляют для исследований на военную базу и прячут в ангаре под №18. Но друзья погибшего астронавта пытаются узнать правду о загадочном объекте, встреченном на орбите, и не хотят сидеть сложа руки, и предпринимают собственное и весьма рискованное расследование...
    В 80-х годах этот фильм демонстрировался в кинотеатрах по всему СССР и снискал большую популярность у зрителей.




    Качество фильма: BDRip / Blu-ray 1080p
    Тип видео: AVI

    Информация о видео: 656x368 (16:9), 23.976 fps, XviD ~ 931 kbps avg, 0.161 bit/pixel
    Информация о звуке: 48 kHz, МР3, 2 ch, 128 kbps, русский дублированный

    Раздача от:
    MediaInfo

    Общее
    Полное имя : Angar.18.1980.D.BDRip.745MB_New-Team_by_avproh.avi
    Формат : AVI
    Формат/Информация : Audio Video Interleave
    Размер файла : 745 Мбайт
    Продолжительность : 1 ч. 37 м.
    Общий поток : 1068 Кбит/сек
    Программа кодирования : VirtualDubModRus 1.5.10.2 (build 2542/release)
    Библиотека кодирования : VirtualDubMod build 2542/release

    Видео
    Идентификатор : 0
    Формат : MPEG-4 Visual
    Профиль формата : Advanced Simple@L5
    Параметр BVOP формата : 1
    Параметр QPel формата : Нет
    Параметр GMC формата : Без точки перехода
    Параметр матрицы формата : Выборочная
    Идентификатор кодека : XVID
    Идентификатор кодека/Подсказка : XviD
    Продолжительность : 1 ч. 37 м.
    Битрейт : 931 Кбит/сек
    Ширина : 656 пикселей
    Высота : 368 пикселей
    Соотношение сторон : 16:9
    Частота кадров : 23,976 кадра/сек
    Цветовое пространство : YUV
    Субдискретизация насыщенности : 4:2:0
    Битовая глубина : 8 бит
    Тип развёртки : Прогрессивная
    Метод сжатия : С потерями
    Бит/(Пиксели*Кадры) : 0.161
    Размер потока : 649 Мбайт (87%)
    Библиотека кодирования : XviD 73

    Аудио
    Идентификатор : 1
    Формат : MPEG Audio
    Версия формата : Version 1
    Профиль формата : Layer 3
    Режим : Joint stereo
    Расширение режима : MS Stereo
    Идентификатор кодека : 55
    Идентификатор кодека/Подсказка : MP3
    Продолжительность : 1 ч. 37 м.
    Вид битрейта : Постоянный
    Битрейт : 128 Кбит/сек
    Каналы : 2 канала
    Частота : 48,0 КГц
    Метод сжатия : С потерями
    Размер потока : 89,3 Мбайт (12%)
    Выравнивание : Соединение по промежуткам
    Продолжительность промежутка : 42 мс. (1,00 видеокадр)
    Время предзагрузки промежутка : 504 мс.

    Скриншоты для ознакомления:



    Залил: avproh
    Размер скачиваемого торрента: 744.75 MB (780924928 Bytes)

    Ангар 18 / Hangar 18 (1980) DVDRip от New-Team | D торрент скачать бесплатно
    загрузка...
    Рейтинг →
     (голосов: 1, оценка 5/5, голосовать можно 1 раз )

    Другие торренты по теме:

  • Ангар 18 / Hangar 18 (1980) SATRip | НТВ скачать через торрент бесплатно
  • Ангар 18 / Hangar 18 (1980) BDRip 720p от New-Team | D, P2, A
  • Ангар 18 / Hangar 18 (1980) BDRip-AVC от New-Team | D
  • Ангар 18 / Hangar 18 (1980) DVDRip от New-Team | D, P2, A
  • Ангар 18 / Hangar 18 (1980) BDRip от New-Team | D
  • Ангар 18 / Hangar 18 (1980) BDRip-AVC от New-Team | D, P2, A скачать через торрент бесплатно
  • Ангар 18 / Hangar 18 (1980) BDRip 1080p от New-Team | D, P2, A
  • Ангар 18 / Hangar 18 (1980) BDRemux 1080p от New-Team | D, P2, A


    • Комментарии (0):

      Информация

      Информация

        Посетители, находящиеся в группе Гости, не могут оставлять комментарии в данной новости.

        ↓ Меню



        ↓ Опрос

        А Вы добавили сайт в закладки?
        Да
        Не


        Top 10 за месяц (Фильмы)