.
Авторизация | Регистрация
» » Дворецкий / The Butler (2013) HDRip-AVC | L2 скачать через торрент бесплатно




    Дворецкий / The Butler (2013) HDRip-AVC | L2 скачать через торрент бесплатно

    Опубликовал: Админ | Дата: 27-02-2015, 11:10 | Просмотров: 234



    Создали в: 2013
    Создали в: США / Laura Ziskin Productions, Salloway Rubenstein Productions, Windy Hill Pictures
    Категория жанра: Драма, биография
    Время просмотра: 02:12:05
    Перевод текста: Любительский (двухголосый закадровый) Студия Paradox
    Субтитры: Английские
    Навигация по главам: Есть

    Главный режиссер: Ли Дэниелс / Lee Daniels

    Актеры: Форест Уитакер, Опра Уинфри, Джон Кьюсак, Джейн Фонда, Терренс Ховард, Кьюба Гудинг мл., Ленни Кравиц, Дэвид Ойелоуо, Ванесса Редгрейв, Алан Рикман

    Сюжет фильма: В фильме, основанном на статье из Washington Post, рассказывается о дворецком Юджине Аллене, служившем в Белом Доме под началом восьми разных президентов.



    Качество фильма: HDRip-AVC
    Тип видео: MKV
    Информация о видео: H.264, 1024 x 554, 23,976 fps, 1595 Кbps, 0.117 bit/pixel
    Информация о звуке#1: 48 kHz, AC3 Dolby Digital, 3/2 (L,C,R,l,r) LFE ch, 384.00 kbps | RUS
    Информация о звуке#2: 48 kHz, AC3 Dolby Digital, 3/2 (L,C,R,l,r) LFE ch, 384.00 kbps | ENG

    Автор рипа:


    MI
    Формат : Matroska
    Версия формата : Version 2
    Размер файла : 2,18 Гбайт
    Продолжительность : 2 ч. 12 м.
    Общий поток : 2362 Кбит/сек
    Название фильма : Dvoreckiy.2013.HDRip.h264.2.18GB
    Дата кодирования : UTC 2014-02-16 02:46:50
    Программа кодирования : mkvmerge v2.9.9 (;Tutu;) built on Nov 25 2009 21:13:32
    Библиотека кодирования : libebml v0.7.9 libmatroska v0.8.1

    Видео
    Идентификатор : 1
    Формат : AVC
    Формат/Информация : Advanced Video Codec
    Профиль формата : High@L4.1
    Параметр CABAC формата : Да
    Параметр ReFrames формата : 12 кадров
    Идентификатор кодека : V_MPEG4/ISO/AVC
    Продолжительность : 2 ч. 12 м.
    Битрейт : 1595 Кбит/сек
    Ширина : 1024 пикселя
    Высота : 554 пикселя
    Соотношение сторон : 1,85:1
    Режим частоты кадров : Постоянный
    Частота кадров : 23,976 кадра/сек
    Цветовое пространство : YUV
    Субдискретизация насыщенности : 4:2:0
    Битовая глубина : 8 бит
    Тип развёртки : Прогрессивная
    Бит/(Пиксели*Кадры) : 0.117
    Размер потока : 1,43 Гбайт (65%)
    Библиотека кодирования : x264 core 133 r2334 a3ac64b
    Настройки программы : cabac=1 / ref=12 / deblock=1:-3:-3 / analyse=0x3:0x113 / me=umh / subme=11 / psy=1 / psy_rd=1.00:0.25 / mixed_ref=0 / me_range=32 / chroma_me=1 / trellis=2 / 8x8dct=1 / cqm=0 / deadzone=21,11 / fast_pskip=1 / chroma_qp_offset=-4 / threads=12 / lookahead_threads=2 / sliced_threads=0 / nr=0 / decimate=0 / interlaced=0 / bluray_compat=0 / constrained_intra=0 / bframes=8 / b_pyramid=2 / b_adapt=2 / b_bias=0 / direct=3 / weightb=1 / open_gop=0 / weightp=2 / keyint=240 / keyint_min=23 / scenecut=40 / intra_refresh=0 / rc_lookahead=40 / rc=2pass / mbtree=1 / bitrate=1595 / ratetol=1.0 / qcomp=0.70 / qpmin=0 / qpmax=69 / qpstep=4 / cplxblur=20.0 / qblur=0.5 / vbv_maxrate=62500 / vbv_bufsize=78125 / nal_hrd=none / ip_ratio=1.40 / aq=1:1.00
    Язык : English
    Default : Нет
    Forced : Нет

    Аудио #1
    Идентификатор : 2
    Формат : AC-3
    Формат/Информация : Audio Coding 3
    Расширение режима : CM (complete main)
    Параметр Endianness формата : Big
    Идентификатор кодека : A_AC3
    Продолжительность : 2 ч. 12 м.
    Вид битрейта : Постоянный
    Битрейт : 384 Кбит/сек
    Каналы : 6 каналов
    Расположение каналов : Front: L C R, Side: L R, LFE
    Частота : 48,0 КГц
    Битовая глубина : 16 бит
    Метод сжатия : С потерями
    Размер потока : 363 Мбайт (16%)
    Заголовок : AC3.384Kbps (6ch) Russian (DVO Студия Paradox)
    Язык : Russian
    Default : Да
    Forced : Нет

    Аудио #2
    Идентификатор : 3
    Формат : AC-3
    Формат/Информация : Audio Coding 3
    Расширение режима : CM (complete main)
    Параметр Endianness формата : Big
    Идентификатор кодека : A_AC3
    Продолжительность : 2 ч. 12 м.
    Вид битрейта : Постоянный
    Битрейт : 384 Кбит/сек
    Каналы : 6 каналов
    Расположение каналов : Front: L C R, Side: L R, LFE
    Частота : 48,0 КГц
    Битовая глубина : 16 бит
    Метод сжатия : С потерями
    Размер потока : 363 Мбайт (16%)
    Заголовок : AC3.384Kbps (6ch) English
    Язык : English
    Default : Нет
    Forced : Нет

    Текст #1
    Идентификатор : 4
    Формат : UTF-8
    Идентификатор кодека : S_TEXT/UTF8
    Идентификатор кодека/Информация : UTF-8 Plain Text
    Заголовок : English (Full)
    Язык : English
    Default : Нет
    Forced : Нет

    Текст #2
    Идентификатор : 5
    Формат : UTF-8
    Идентификатор кодека : S_TEXT/UTF8
    Идентификатор кодека/Информация : UTF-8 Plain Text
    Заголовок : English (SDH)
    Язык : English
    Default : Нет
    Forced : Нет

    Текст #3
    Идентификатор : 6
    Формат : UTF-8
    Идентификатор кодека : S_TEXT/UTF8
    Идентификатор кодека/Информация : UTF-8 Plain Text
    Заголовок : English (SDH-Colored)
    Язык : English
    Default : Нет
    Forced : Нет

    Меню
    00:00:00.000 : en:00:00:00.000
    00:07:27.072 : en:00:07:27.072
    00:13:51.497 : en:00:13:51.497
    00:22:26.679 : en:00:22:26.679
    00:28:57.736 : en:00:28:57.736
    00:36:38.530 : en:00:36:38.530
    00:45:13.294 : en:00:45:13.294
    00:51:56.196 : en:00:51:56.196
    00:59:22.476 : en:00:59:22.476
    01:07:08.399 : en:01:07:08.399
    01:15:09.380 : en:01:15:09.380
    01:20:14.101 : en:01:20:14.101
    01:27:25.866 : en:01:27:25.866
    01:35:12.707 : en:01:35:12.707
    01:42:12.293 : en:01:42:12.293
    01:49:09.251 : en:01:49:09.251
    01:56:22.142 : en:01:56:22.142
    02:04:42.058 : en:02:04:42.058
    Скриншоты для ознакомления

    Размер скачиваемого торрента: 2.18 GB (2339714751 Bytes)

    Дворецкий / The Butler (2013) HDRip-AVC | L2 скачать через торрент бесплатно
    загрузка...
    Рейтинг →
     (голосов: 1, оценка 5/5, голосовать можно 1 раз )

    Другие торренты по теме:

  • Темный дворецкий / Kuroshitsuji II / Dark Butler (2010) BDRip 720p от FilmRus торрент скачать бесплатно
  • Дворецкий / The Butler (2013) BDRip 1080p | L1 торрент скачать бесплатно
  • Дворецкий / The Butler (2013) BDRip 720p | L1 торрент скачать бесплатно
  • Дворецкий / The Butler (2013) HDRip | L1 торрент скачать бесплатно
  • Дворецкий / The Butler (2013) HDRip от Scarabey торрент скачать бесплатно
  • Дворецкий / The Butler (2013) BDRip 720p от Leonardo and Scarabey | L1 скачать через торрент бесплатно
  • Дворецкий / The Butler (2013) HDRip | L2 торрент скачать бесплатно
  • Дворецкий / The Butler (2013) BDRip-AVC от potroks | L2 скачать через торрент бесплатно


    • Комментарии (0):

      Информация

      Информация

        Посетители, находящиеся в группе Гости, не могут оставлять комментарии в данной новости.

        ↓ Меню



        ↓ Опрос

        А Вы добавили сайт в закладки?
        Да
        Не


        Top 10 за неделю (Фильмы)