.
Авторизация | Регистрация
Хочешь лучшие торренты? Добавь свой email!
Добавить
» » Невидимый мир / Mundo Invisvel (2012) DVB от MediaClub | P скачать через торрент бесплатно




    Невидимый мир / Mundo Invisvel (2012) DVB от MediaClub | P скачать через торрент бесплатно

    Опубликовал: Админ | Дата: 27-02-2015, 11:10 | Просмотров: 310



    Детально о кино
    Русское название: Невидимый мир
    Русское название в мировом прокате: Mundo Invis?vel
    Создали в: 2012
    Категория жанра: Драма
    Главный режиссер: Тео Ангелопулос, Ежи Штур, Сиско Васкес, Вим Вендерс, Джан Витторио Бальди, Марко Бекис, Лаис Боданзки, Бету Брант, Мария ди Медейруш, Мануэл ди Оливейра, Атом Эгоян, Гай Мэддин
    Актеры: Юпитер Эппл, Джан Витторио Бальди, Соня Брага, Леон Какофф, Моня Коэн, Талма де Фрейтас, Жоан-Луи Фонт, Денис Фрага, Лаура Нейва, Томас Оливейра

    Сюжет фильма:
    Коллекция киноновелл о тайнах времени и пространства от выдающихся режиссеров современности! Существует ли в реальности то, что мы видим? Видим ли мы одно и то же, глядя в одну сторону? Возможно ли увидеть иную, невидимую, параллельную реальность? На эти и многие другие вопросы, связанные с концепцией невидимости, пытаются найти ответы самые яркие режиссеры современности.



    Снималось в: Бразилия
    Киностудия: Gullane Filmes, Mostra Internacional de Cinema de S?o Paulo, Quer? Filmes
    Время просмотра: 01:00:08
    Перевод текста: Профессиональный многоголосый

    Файл
    Качество фильма: DVB
    Информация о видео: MPEG-2, 2362 Кбит/с, 720x576@1024x576
    Информация о звуке: Русский (АС3, 6 ch, 384 Кбит/с) / (MP2, 2 ch, 192 Кбит/с)

    Семпл

    Скриншоты для ознакомления

    MI
    бщее
    Полное имя : Nevidimyj.mir.2012.DVB.MediaClub.ts
    Формат : MPEG-TS
    Профиль формата : No PAT/PMT
    Размер файла : 1,30 Гбайт
    Продолжительность : 1 ч. 0 м.
    Режим общего битрейта : Переменный
    Общий поток : 3097 Кбит/сек

    Видео
    Идентификатор : 322 (0x142)
    Формат : MPEG Video
    Версия формата : Version 2
    Профиль формата : Main@Main
    Параметр BVOP формата : Да
    Параметр матрицы формата : Выборочная
    Параметр GOP формата : Variable
    Продолжительность : 1 ч. 0 м.
    Вид битрейта : Переменный
    Битрейт : 2362 Кбит/сек
    Максимальный битрейт : 15,0 Мбит/сек
    Ширина : 720 пикселей
    Высота : 576 пикселей
    Соотношение сторон : 16:9
    Частота кадров : 25,000 кадров/сек
    Стандарт вещания : PAL
    Цветовое пространство : YUV
    Субдискретизация насыщенности : 4:2:0
    Битовая глубина : 8 бит
    Тип развёртки : Чересстрочная
    Порядок развёртки : Верхнее поле первое
    Метод сжатия : С потерями
    Бит/(Пиксели*Кадры) : 0.228
    Размер потока : 1016 Мбайт (76%)

    Аудио #1
    Идентификатор : 405 (0x195)
    Формат : MPEG Audio
    Версия формата : Version 1
    Профиль формата : Layer 2
    Продолжительность : 1 ч. 0 м.
    Вид битрейта : Постоянный
    Битрейт : 192 Кбит/сек
    Каналы : 2 канала
    Частота : 48,0 КГц
    Метод сжатия : С потерями
    Задержка видео : -730 мс.
    Размер потока : 82,6 Мбайт (6%)

    Аудио #2
    Идентификатор : 435 (0x1B3)
    Формат : AC-3
    Формат/Информация : Audio Coding 3
    Расширение режима : CM (complete main)
    Параметр Endianness формата : Big
    Продолжительность : 1 ч. 0 м.
    Вид битрейта : Постоянный
    Битрейт : 384 Кбит/сек
    Каналы : 6 каналов
    Расположение каналов : Front: L C R, Side: L R, LFE
    Частота : 48,0 КГц
    Битовая глубина : 16 бит
    Метод сжатия : С потерями
    Задержка видео : -754 мс.
    Размер потока : 165 Мбайт (12%)


    Релиз подготовил:
    Залил: poja
    Размер скачиваемого торрента: 1.30 GB (1396700128 Bytes)

    Невидимый мир / Mundo Invisvel (2012) DVB от MediaClub | P скачать через торрент бесплатно
    загрузка...
    Рейтинг →
     (голосов: 1, оценка 3/5, голосовать можно 1 раз )

    Другие торренты по теме:

  • Невидимый мир / Mundo Invisvel (2012) WEB-DLRip | P


    • Комментарии (0):

      Информация

      Информация

        Посетители, находящиеся в группе Гости, не могут оставлять комментарии в данной новости.

        ↓ Меню



        ↓ Опрос

        А Вы добавили сайт в закладки?
        Да
        Не


        Top 10 за месяц (Фильмы)