.
Авторизация | Регистрация
Хочешь лучшие торренты? Добавь свой email!
Добавить
» » Подпольное детство / Infancia clandestina / Clandestine Childhood (2011) DVB от MediaClub | P торрент скачать бесплатно




    Подпольное детство / Infancia clandestina / Clandestine Childhood (2011) DVB от MediaClub | P торрент скачать бесплатно

    Опубликовал: Админ | Дата: 27-02-2015, 11:10 | Просмотров: 273



    Детально о кино
    Русское название: Подпольное детство
    Русское название в мировом прокате: Infancia clandestina / Clandestine Childhood
    Создали в: 2011
    Категория жанра: Драма, история
    Главный режиссер: Бенджамин Авила
    Актеры: Тео Гутьерес Ромеро, Эрнесто Альтерио, Наталья Орейро, Сесар Тронкосо, Кристина Банегас, Майяна Нейва, Дуглас Симон, Виолета Палукас

    Сюжет фильма:
    Аргентина, 1979 год. После многих лет изгнания Хуан и его семья возвращаются в Аргентину под чужими именами. Родители Хуана и его дядя Бето — члены Организации Монтонерос, которая борется против военной хунты, правящей страной. Из-за своей деятельности они живут под постоянной угрозой ареста и даже смерти. Однако повседневная жизнь Хуана также полна тепла и юмора, и он быстро и легко привыкает к своей новой среде. Его друзья в школе и Мария, девочка, которая ему очень нравится, знают его как Эрнесто — и он должен жить под этим именем ради выживания своей семьи. Хуан принимает это и выполняет все правила своих родителей, пока однажды они не говорят ему, что им немедленно нужно переехать в другое место, и он должен будет оставить Марию и друзей без каких-либо объяснений…



    Снималось в: Аргентина, Испания, Бразилия
    Киностудия: Academia de Filmes, Antartida Produccions, Habitacion 1520 Producciones
    Время просмотра: 01:46:00
    Перевод текста: Профессиональный многоголосый

    Файл
    Качество фильма: DVB
    Информация о видео: MPEG-2, 1762 Кбит/с, 720x576@1024x576
    Информация о звуке: Русский (АС3, 6 ch, 384 Кбит/с) / (MP2, 2 ch, 192 Кбит/с)

    Семпл

    Скриншоты для ознакомления

    MI
    Общее
    Полное имя : Podpolnoe.detstvo.2011.DVB.MediaClub.ts
    Формат : MPEG-TS
    Профиль формата : No PAT/PMT
    Размер файла : 1,83 Гбайт
    Продолжительность : 1 ч. 46 м.
    Режим общего битрейта : Переменный
    Общий поток : 2465 Кбит/сек

    Видео
    Идентификатор : 322 (0x142)
    Формат : MPEG Video
    Версия формата : Version 2
    Профиль формата : Main@Main
    Параметр BVOP формата : Да
    Параметр матрицы формата : Выборочная
    Параметр GOP формата : Variable
    Продолжительность : 1 ч. 46 м.
    Вид битрейта : Переменный
    Битрейт : 1762 Кбит/сек
    Максимальный битрейт : 15,0 Мбит/сек
    Ширина : 720 пикселей
    Высота : 576 пикселей
    Соотношение сторон : 16:9
    Частота кадров : 25,000 кадров/сек
    Стандарт вещания : PAL
    Цветовое пространство : YUV
    Субдискретизация насыщенности : 4:2:0
    Битовая глубина : 8 бит
    Тип развёртки : Чересстрочная
    Порядок развёртки : Верхнее поле первое
    Метод сжатия : С потерями
    Бит/(Пиксели*Кадры) : 0.170
    Размер потока : 1,30 Гбайт (71%)

    Аудио #1
    Идентификатор : 405 (0x195)
    Формат : MPEG Audio
    Версия формата : Version 1
    Профиль формата : Layer 2
    Продолжительность : 1 ч. 46 м.
    Вид битрейта : Постоянный
    Битрейт : 192 Кбит/сек
    Каналы : 2 канала
    Частота : 48,0 КГц
    Метод сжатия : С потерями
    Задержка видео : -978 мс.
    Размер потока : 146 Мбайт (8%)

    Аудио #2
    Идентификатор : 435 (0x1B3)
    Формат : AC-3
    Формат/Информация : Audio Coding 3
    Расширение режима : CM (complete main)
    Параметр Endianness формата : Big
    Продолжительность : 1 ч. 46 м.
    Вид битрейта : Постоянный
    Битрейт : 384 Кбит/сек
    Каналы : 6 каналов
    Расположение каналов : Front: L C R, Side: L R, LFE
    Частота : 48,0 КГц
    Битовая глубина : 16 бит
    Метод сжатия : С потерями
    Задержка видео : -970 мс.
    Размер потока : 291 Мбайт (16%)

    Награды
    Гойя, 2013 год
    Номинации (1):

    Лучший латиноамериканский фильм — Аргентина



    Сан-Себастьян, 2011 год
    Победитель (1):

    Приз культурного центра Латинской Америки


    Релиз подготовил:
    Залил: poja
    Размер скачиваемого торрента: 1.83 GB (1959989112 Bytes)

    Подпольное детство / Infancia clandestina / Clandestine Childhood (2011) DVB от MediaClub | P торрент скачать бесплатно
    загрузка...
    Рейтинг →
     (голосов: 1, оценка 4/5, голосовать можно 1 раз )

    Другие торренты по теме:

  • Подпольное детство / Infancia clandestina (2011) DVDRip |Sub


    • Комментарии (0):

      Информация

      Информация

        Посетители, находящиеся в группе Гости, не могут оставлять комментарии в данной новости.

        ↓ Меню



        ↓ Опрос

        А Вы добавили сайт в закладки?
        Да
        Не


        Top 10 за месяц (Фильмы)