.
Авторизация | Регистрация
» » Полтергейст / Poltergeist (1982) BDRip-AVC | iPhone | D,P1 торрент скачать бесплатно




    Полтергейст / Poltergeist (1982) BDRip-AVC | iPhone | D,P1 торрент скачать бесплатно

    Опубликовал: Админ | Дата: 27-02-2015, 11:10 | Просмотров: 297



    Полтергейст / Poltergeist (1982) BDRip-AVC | iPhone | D,P1

    Русское название: Полтергейст
    Русское название в мировом прокате: Poltergeist
    Создали в: 1982
    Категория жанра: ужасы
    Главный режиссер: Тоуб Хупер
    Актеры: Крэйг Т. Нельсон, ДжоБет Уильямс, Беатрис Стрэйт, Доминик Данн, Оливер Робинс, Хезер О’Рурк, Майкл МакМэнус, Вирджиния Кайсер, Мартин Казелла, Ричард Лоусон

    Сюжет фильма:
    Они здесь... Сначала они кажутся призрачными, играя в прятки в загородном доме Фрилингов. Но затем становится по-настоящему страшно! Тучи сгущаются, ожившие деревья нападают, а малютку Кэрол Энн Фрилинг засасывает в спектральную пустоту. И пока ее семья борется с вереницей кошмаров и пытается спасти девочку, по соседству, где-то рядом затаилось нечто...



    Снималось в: США
    Киностудия: Metro-Goldwyn-Mayer (MGM), SLM Production Group

    Время просмотра: 01:54:28
    Перевод текста: Русский дублированный, профессиональный одноголосый закадровый

    Файл
    Кодек для видео: H.264
    Качество фильма: BDRip-AVC 480p iPhone
    Информация о видео: 640x354@852x354 (2.40:1) at 23.976 fps, AVC at 1790 kbps
    Информация о звуке:
    1: 48 kHz, AAC 2.0, 180 kbps - Русский дублированный
    2: 48 kHz, AAC 2.0, 180 kbps - Русский профессиональный одноголосый закадровый
    3: 48 kHz, AAC 2.0, 192 kbps - Английский
    Субтитры: Английские

    Media Info

    General
    Complete name : C:CREATE480outPoltergeist.1982 (SD).m4v
    Format : MPEG-4
    Codec ID : M4V
    File size : 1.89 GiB
    Duration : 1h 54mn
    Overall bit rate mode : Variable
    Overall bit rate : 2 369 Kbps
    Movie name : Полтергейст
    Performer : Тоуб Хупер
    Genre : Horror
    Recorded date : UTC 1997-04-08 07:00:00
    Encoded date : UTC 2014-02-17 14:10:01
    Tagged date : UTC 2014-02-17 14:56:29
    Copyright : Metro-Goldwyn-Mayer (MGM)
    Cover : Yes
    Comment : Он знает, как тебя напугать
    sonm : Poltergeist
    desc : Они здесь... Сначала они кажутся призрачными, играя в прятки в загородном доме Фрилингов. Но затем становится по-настоящему страшно! Тучи сгущаются, ожившие деревья нападают, а малютку Кэрол Энн Фрилинг засасывает в спектральную пустоту.
    ldes : Они здесь... Сначала они кажутся призрачными, играя в прятки в загородном доме Фрилингов. Но затем становится по-настоящему страшно! Тучи сгущаются, ожившие деревья нападают, а малютку Кэрол Энн Фрилинг засасывает в спектральную пустоту. И пока ее семья борется с вереницей кошмаров и пытается спасти девочку, по соседству, где-то рядом затаилось нечто..
    stik : 9
    rtng : 0
    cnID : 318634782
    xid : Apple:vendor_id:1982-7116
    iTunEXTC : mpaa|PG|200|

    Video #1
    ID : 1
    Format : AVC
    Format/Info : Advanced Video Codec
    Format profile : Baseline@L3.0
    Format settings, CABAC : No
    Format settings, ReFrames : 2 frames
    Codec ID : avc1
    Codec ID/Info : Advanced Video Coding
    Duration : 1h 54mn
    Bit rate : 1 791 Kbps
    Maximum bit rate : 8 805 Kbps
    Width : 640 pixels
    Height : 354 pixels
    Display aspect ratio : 2.40:1
    Frame rate mode : Constant
    Frame rate : 23.976 fps
    Color space : YUV
    Chroma subsampling : 4:2:0
    Bit depth : 8 bits
    Scan type : Progressive
    Bits/(Pixel*Frame) : 0.330
    Stream size : 1.43 GiB (76%)
    Title : Poltergeist _1982_
    Writing library : x264 core 140 r2377 40 929f149 tMod 8-bit@4:2:0 X86_64
    Encoding settings : cabac=0 / ref=2 / deblock=1:-2:-2 / analyse=0x1:0x131 / me=umh / subme=7 / psy=1 / fade_compensate=1.00 / psy_rd=1.00:0.10 / mixed_ref=1 / me_range=48 / chroma_me=1 / trellis=2 / 8x8dct=0 / cqm=0 / deadzone=21,11 / fast_pskip=0 / chroma_qp_offset=-3 / threads=12 / lookahead_threads=2 / sliced_threads=0 / nr=0 / decimate=0 / interlaced=0 / bluray_compat=0 / constrained_intra=0 / fgo=5 / bframes=0 / weightp=0 / keyint=250 / keyint_min=23 / scenecut=40 / intra_refresh=0 / rc_lookahead=120 / rc=crf / mbtree=1 / crf=20.0000 / qcomp=0.65 / qpmin=0:0:0 / qpmax=69:69:69 / qpstep=4 / vbv_maxrate=5000 / vbv_bufsize=5000 / crf_max=0.0 / nal_hrd=none / filler=0 / ip_ratio=1.35 / aq=4:0.90 / aq-sensitivity=10.00 / aq-factor=1.00:1.00:1.00 / aq2=0 / aq3=0
    Language : English
    Encoded date : UTC 2014-02-17 14:10:01
    Tagged date : UTC 2014-02-17 14:10:47
    Matrix coefficients : BT.709

    Video #2
    ID : 7
    Format : JPEG
    Codec ID : jpeg
    Duration : 1h 54mn
    Bit rate mode : Variable
    Bit rate : 1 262 bps
    Width : 640 pixels
    Height : 266 pixels
    Display aspect ratio : 2.40:1
    Frame rate mode : Variable
    Frame rate : 0.004 fps
    Minimum frame rate : 0.003 fps
    Maximum frame rate : 0.009 fps
    Color space : YUV
    Chroma subsampling : 4:2:0
    Bit depth : 8 bits
    Compression mode : Lossy
    Bits/(Pixel*Frame) : 1.853
    Stream size : 1.13 MiB (0%)
    Language : English
    Encoded date : UTC 2014-02-17 14:54:00
    Tagged date : UTC 2014-02-17 14:54:00

    Audio #1
    ID : 2
    Format : AAC
    Format/Info : Advanced Audio Codec
    Format profile : LC
    Codec ID : 40
    Duration : 1h 54mn
    Bit rate mode : Variable
    Bit rate : 188 Kbps
    Maximum bit rate : 216 Kbps
    Channel(s) : 2 channels
    Channel positions : Front: L R
    Sampling rate : 48.0 KHz
    Compression mode : Lossy
    Stream size : 154 MiB (8%)
    Title : MVO
    Language : Russian
    Encoded date : UTC 2014-02-17 13:47:35
    Tagged date : UTC 2014-02-17 14:10:47

    Audio #2
    ID : 3
    Format : AAC
    Format/Info : Advanced Audio Codec
    Format profile : LC
    Codec ID : 40
    Duration : 1h 54mn
    Bit rate mode : Variable
    Bit rate : 186 Kbps
    Maximum bit rate : 219 Kbps
    Channel(s) : 2 channels
    Channel positions : Front: L R
    Sampling rate : 48.0 KHz
    Compression mode : Lossy
    Stream size : 152 MiB (8%)
    Title : VO _Mikhalev_
    Language : Russian
    Encoded date : UTC 2014-02-17 13:57:10
    Tagged date : UTC 2014-02-17 14:10:47

    Audio #3
    ID : 4
    Format : AAC
    Format/Info : Advanced Audio Codec
    Format profile : LC
    Codec ID : 40
    Duration : 1h 54mn
    Bit rate mode : Variable
    Bit rate : 196 Kbps
    Maximum bit rate : 218 Kbps
    Channel(s) : 2 channels
    Channel positions : Front: L R
    Sampling rate : 48.0 KHz
    Compression mode : Lossy
    Stream size : 161 MiB (8%)
    Title : Original
    Language : English
    Encoded date : UTC 2014-02-17 14:06:04
    Tagged date : UTC 2014-02-17 14:10:47

    Text
    ID : 5
    Format : Timed Text
    Muxing mode : sbtl
    Codec ID : tx3g
    Duration : 1h 54mn
    Bit rate mode : Variable
    Bit rate : 54 bps
    Stream size : 45.0 KiB (0%)
    Title : Subtitle English
    Language : English
    Encoded date : UTC 2014-02-17 14:10:47
    Tagged date : UTC 2014-02-17 14:10:47

    Menu
    ID : 6
    Codec ID : text
    Duration : 1h 54mn
    Language : English
    Encoded date : UTC 2014-02-17 14:13:03
    Tagged date : UTC 2014-02-17 14:13:03
    Bit rate mode : CBR
    iTunes Meta Tags

    Sort Name: Poltergeist
    XID: Apple:vendor_id:1982-7116
    contentID: 318634782
    Copyright: Metro-Goldwyn-Mayer (MGM)
    Screenwriters: Стивен Спилберг, Майкл Грэйс, Марк Виктор
    Producers: Фрэнк Маршалл, Стивен Спилберг, Кэтлин Кеннеди
    Director: Tobe Hooper
    Cast: Крэйг Т. Нельсон, ДжоБет Уильямс, Беатрис Стрэйт, Доминик Данн, Оливер Робинс, Хезер О’Рурк, Майкл МакМэнус, Вирджиния Кайсер, Мартин Казелла, Ричард Лосон
    Studio: Metro-Goldwyn-Mayer (MGM), SLM Production Group
    Rating: 3
    Long Deion: Они здесь... Сначала они кажутся призрачными, играя в прятки в загородном доме Фрилингов. Но затем становится по-настоящему страшно! Тучи сгущаются, ожившие деревья нападают, а малютку Кэрол Энн Фрилинг засасывает в спектральную пустоту. И пока ее семья борется с вереницей кошмаров и пытается спасти девочку, по соседству, где-то рядом затаилось нечто..
    Deion: Они здесь... Сначала они кажутся призрачными, играя в прятки в загородном доме Фрилингов. Но затем становится по-настоящему страшно! Тучи сгущаются, ожившие деревья нападают, а малютку Кэрол Энн Фрилинг засасывает в спектральную пустоту.
    Release Date: 1997-04-08T07:00:00Z
    Genre: Horror
    Comments: Он знает, как тебя напугать
    Artist: Тоуб Хупер
    Name: Полтергейст
    x264 Log

    x264 info: frame I:6722 Avg QP:20.37 size: 17295
    x264 info: frame P:157954 Avg QP:21.06 size: 8998
    x264 info: mb I I16..4: 46.2% 0.0% 53.8%
    x264 info: mb P I16..4: 1.5% 0.0% 1.5% P16..4: 51.7% 18.2% 13.3% 1.5% 1.0% skip:11.3%
    x264 info: coded y,uvDC,uvAC intra: 55.0% 77.1% 42.3% inter: 44.5% 43.8% 15.0%
    x264 info: i16 v,h,dc,p: 39% 13% 9% 39%
    x264 info: i4 v,h,dc,ddl,ddr,vr,hd,vl,hu: 38% 12% 17% 6% 6% 7% 5% 6% 4%
    x264 info: i8c dc,h,v,p: 49% 15% 26% 10%
    x264 info: ref P L0: 73.5% 26.5%
    x264 info: kb/s:1790.89
    Скриншоты для ознакомления



    Залил: gekka
    Размер скачиваемого торрента: 1.89 GB (2033852979 Bytes)

    Полтергейст / Poltergeist (1982) BDRip-AVC | iPhone | D,P1 торрент скачать бесплатно
    загрузка...
    Рейтинг →
     (голосов: 1, оценка 5/5, голосовать можно 1 раз )

    Другие торренты по теме:



      Комментарии (0):

      Информация

      Информация

        Посетители, находящиеся в группе Гости, не могут оставлять комментарии в данной новости.

        ↓ Меню



        ↓ Опрос

        А Вы добавили сайт в закладки?
        Да
        Не


        Top 10 за неделю (Фильмы)