.
Авторизация | Регистрация
» » Мир без конца / Бесконечный мир / World Without End (2012) BDRip 720p от HDClub торрент скачать бесплатно




    Мир без конца / Бесконечный мир / World Without End (2012) BDRip 720p от HDClub торрент скачать бесплатно

    Опубликовал: Админ | Дата: 27-02-2015, 11:10 | Просмотров: 278



    Детально о кино
    Русское название: Мир без конца / Бесконечный мир
    Русское название в мировом прокате: World Without End
    Создали в: 2012
    Категория жанра: триллер, драма, мелодрама, история
    Главный режиссер: Майкл Кейтон-Джонс
    Актеры: Бен Чаплин, Шарлотта Райли, Нора фон Вальдштеттен, Оливер Джексон-Коэн, Руперт Эванс, Том Уэстон-Джонс, Синтия Никсон, Том Каллен, Блейк Ритсон, Миранда Ричардсон

    Сюжет фильма:
    Действие сериала разворачивается в вымышленном английском городке Кингсбридж, в 1300-х годах, когда страна находилась на пороге Столетней войны с Францией и вспышки эпидемии чумы в Европе. На рынках процветающего городка Кингсбридж ходят слухи, что король Англии погиб при странных обстоятельствах. Гражданская война закончилась, но экономическое положение города позволяет ему оставаться надежным средством пополнения казны.

    Список серий

    01. Рыцарь / Knight
    02. Король / King
    03. Приор / Prior
    04. Проверка / Check
    05. Заложник / Pawns
    06. Грач / Rook
    07. Королева / Queen
    08. Поражение / Checkmate
    Дополнительно

    Сохранены оригинальные чаптеры как на Blu-ray.
    Дорожка №1 получена наложением выделенного голоса на центр декодированного DTS-HD MA.
    Спасибо Jetsam за дорожку SET - запись аудио, сведение, монтаж. Благодарности: Nez (фрагмент звука на место сбоя в 102 серии).
    За выделенные голоса c DVD R5 спасибо Vlad1k_H_.
    English Forced сабы только на 5 эпизод.
    The other encode used the GER source (25fps), which had every 2 episodes merged, german titles and high pitch audio (PAL speedup).

    The USA/UK source has a better picture quality, english titles, but a crop(2,16,-2,-16) !

    So I made a hybrid by using the GER source and slowing it down to 23.976fps, then overlaying the cropped USA source onto it to restore the missing borders. Technically, the appended borders have less PQ than the rest of the picture, but that;s barely distinguishible. The process required lots of adjustments because of the merged episodes in the GER source.
    MediaInfo

    Общее
    Уникальный идентификатор : 225238119935433494626474219102988635953 (0xA97348B2EBB4313C9621DF864F9F8F31)
    Полное имя : World.Without.End.2012.720p.BluRay.Rus.Eng.HDCLUBWorld.Without.End.2012.E01.Knight.720p.BluRay.3xRus.Eng.HDCLUB.mkv
    Формат : Matroska
    Версия формата : Version 4 / Version 2
    Размер файла : 3,56 Гбайт
    Продолжительность : 51 м.
    Общий поток : 9970 Кбит/сек
    Дата кодирования : UTC 2013-12-31 17:03:41
    Программа кодирования : mkvmerge v6.6.0 (;The Edge Of The In Between;) built on Dec 1 2013 17:55:00
    Библиотека кодирования : libebml v1.3.0 libmatroska v1.4.1

    Видео
    Идентификатор : 1
    Формат : AVC
    Формат/Информация : Advanced Video Codec
    Профиль формата : High@L4.1
    Параметр CABAC формата : Да
    Параметр ReFrames формата : 9 кадров
    Идентификатор кодека : V_MPEG4/ISO/AVC
    Продолжительность : 51 м.
    Битрейт : 6565 Кбит/сек
    Ширина : 1280 пикселей
    Высота : 720 пикселей
    Соотношение сторон : 16:9
    Режим частоты кадров : Постоянный
    Частота кадров : 23,976 кадра/сек
    Цветовое пространство : YUV
    Субдискретизация насыщенности : 4:2:0
    Битовая глубина : 8 бит
    Тип развёртки : Прогрессивная
    Бит/(Пиксели*Кадры) : 0.297
    Размер потока : 2,27 Гбайт (64%)
    Заголовок : World Without End. Episode 01 Knight
    Библиотека кодирования : x264 core 133 r2334kMod a3ac64b
    Настройки программы : cabac=1 / ref=9 / deblock=1:-3:-3 / analyse=0x3:0x113 / me=umh / subme=10 / psy=1 / fade_compensate=0.00 / psy_rd=1.10:0.00 / mixed_ref=1 / me_range=16 / chroma_me=1 / trellis=2 / 8x8dct=1 / cqm=0 / deadzone=21,11 / fast_pskip=0 / chroma_qp_offset=-2 / threads=6 / lookahead_threads=1 / sliced_threads=0 / nr=0 / decimate=0 / interlaced=0 / bluray_compat=0 / constrained_intra=0 / bframes=8 / b_pyramid=2 / b_adapt=2 / b_bias=0 / direct=3 / weightb=1 / open_gop=0 / weightp=2 / keyint=250 / keyint_min=23 / scenecut=40 / intra_refresh=0 / rc=2pass / mbtree=0 / bitrate=6565 / ratetol=1.0 / qcomp=0.70 / qpmin=0 / qpmax=69 / qpstep=4 / cplxblur=20.0 / qblur=0.5 / ip_ratio=1.20 / pb_ratio=1.10 / aq=1:0.70
    Язык : English
    Default : Да
    Forced : Нет

    Аудио #1
    Идентификатор : 2
    Формат : DTS
    Формат/Информация : Digital Theater Systems
    Режим : 16
    Параметр Endianness формата : Big
    Идентификатор кодека : A_DTS
    Продолжительность : 51 м.
    Вид битрейта : Постоянный
    Битрейт : 1509 Кбит/сек
    Каналы : 6 каналов
    Расположение каналов : Front: L C R, Side: L R, LFE
    Частота : 48,0 КГц
    Битовая глубина : 16 бит
    Метод сжатия : С потерями
    Размер потока : 551 Мбайт (15%)
    Заголовок : DTS 5.1 @ 1536 kbps - R5
    Язык : Russian
    Default : Да
    Forced : Нет

    Аудио #2
    Идентификатор : 3
    Формат : AC-3
    Формат/Информация : Audio Coding 3
    Расширение режима : CM (complete main)
    Параметр Endianness формата : Big
    Идентификатор кодека : A_AC3
    Продолжительность : 51 м.
    Вид битрейта : Постоянный
    Битрейт : 192 Кбит/сек
    Каналы : 2 канала
    Расположение каналов : Front: L R
    Частота : 48,0 КГц
    Битовая глубина : 16 бит
    Метод сжатия : С потерями
    Размер потока : 70,1 Мбайт (2%)
    Заголовок : AC3 2.0 @ 192 kbps - Кубик в Кубе
    Язык : Russian
    Default : Нет
    Forced : Нет

    Аудио #3
    Идентификатор : 4
    Формат : AC-3
    Формат/Информация : Audio Coding 3
    Расширение режима : CM (complete main)
    Параметр Endianness формата : Big
    Идентификатор кодека : A_AC3
    Продолжительность : 51 м.
    Вид битрейта : Постоянный
    Битрейт : 192 Кбит/сек
    Каналы : 2 канала
    Расположение каналов : Front: L R
    Частота : 48,0 КГц
    Битовая глубина : 16 бит
    Метод сжатия : С потерями
    Размер потока : 70,1 Мбайт (2%)
    Заголовок : AC3 2.0 @ 192 kbps - SET
    Язык : Russian
    Default : Нет
    Forced : Нет

    Аудио #4
    Идентификатор : 5
    Формат : DTS
    Формат/Информация : Digital Theater Systems
    Режим : 16
    Параметр Endianness формата : Big
    Идентификатор кодека : A_DTS
    Продолжительность : 51 м.
    Вид битрейта : Постоянный
    Битрейт : 1509 Кбит/сек
    Каналы : 6 каналов
    Расположение каналов : Front: L C R, Side: L R, LFE
    Частота : 48,0 КГц
    Битовая глубина : 16 бит
    Метод сжатия : С потерями
    Размер потока : 551 Мбайт (15%)
    Заголовок : DTS 5.1 @ 1536 kbps
    Язык : English
    Default : Нет
    Forced : Нет

    Текст #1
    Идентификатор : 6
    Формат : UTF-8
    Идентификатор кодека : S_TEXT/UTF8
    Идентификатор кодека/Информация : UTF-8 Plain Text
    Заголовок : R5
    Язык : Russian
    Default : Нет
    Forced : Нет

    Текст #2
    Идентификатор : 7
    Формат : UTF-8
    Идентификатор кодека : S_TEXT/UTF8
    Идентификатор кодека/Информация : UTF-8 Plain Text
    Заголовок : English
    Язык : English
    Default : Нет
    Forced : Нет

    Текст #3
    Идентификатор : 8
    Формат : UTF-8
    Идентификатор кодека : S_TEXT/UTF8
    Идентификатор кодека/Информация : UTF-8 Plain Text
    Заголовок : English-SDH
    Язык : English
    Default : Нет
    Forced : Нет

    Текст #4
    Идентификатор : 9
    Формат : UTF-8
    Идентификатор кодека : S_TEXT/UTF8
    Идентификатор кодека/Информация : UTF-8 Plain Text
    Заголовок : French
    Язык : French
    Default : Нет
    Forced : Нет

    Меню
    00:00:00.000 : en:Chapter 1
    00:01:41.560 : en:Chapter 2
    00:11:19.387 : en:Chapter 3
    00:23:03.299 : en:Chapter 4
    00:37:01.386 : en:Chapter 5
    00:50:32.279 : en:Chapter 6




    Снималось в: Канада, Германия, Великобритания
    Время просмотра: 8 x ~ 00:46:00
    Перевод текста: Перевод 1: Профессиональный (многоголосый закадровый) R5
    Перевод 2: Профессиональный (двухголосый закадровый) Кубик в Кубе
    Перевод 3: Профессиональный (многоголосый закадровый) SET

    Файл
    Кодек для видео: x264
    Качество фильма: BDRip 720p CtrlHD
    Информация о видео: 1280x720 at 23.976 fps, x264@L4.1, 2pass, ~6565 kbps avg
    Информация о звуке:
    Аудио#1: Russian: 48 kHz, DTS, 3/2 (L,C,R,l,r) LFE ch, ~1536.00 kbps avg |Многоголосый закадровый, R5|
    Аудио#2: Russian: 48 kHz, AC3, 2/0 (L,R) ch, ~192.00 kbps avg |Двухголосый закадровый, Кубик в Кубе|
    Аудио#3: Russian: 48 kHz, AC3, 2/0 (L,R) ch, ~192.00 kbps avg |Многоголосый закадровый, SET|
    Аудио#4: English: 48 kHz, DTS, 3/2 (L,C,R,l,r) LFE ch, ~1536.00 kbps avg
    Субтитры: Russian (R5), English (Forced), English, English (SDH), French


    Скриншоты для ознакомления


    Релиз подготовил: by HPotter
    Размер скачиваемого торрента: 27.71 GB (29755775095 Bytes)

    Мир без конца / Бесконечный мир / World Without End (2012) BDRip 720p от HDClub торрент скачать бесплатно
    загрузка...
    Рейтинг →
     (голосов: 1, оценка 5/5, голосовать можно 1 раз )

    Другие торренты по теме:

  • Мир без конца / World Without End (2012) 2xDVD9 R5 от Youtracker | P торрент скачать бесплатно
  • Мир без конца / Бесконечный мир / World Without End (2012) HDRip от -=HD-NET=- торрент скачать бесплатно
  • Мир без конца / Бесконечный мир / World Without End (2012) HDRip-AVC | Кубик в Кубе скачать через торрент бесплатно
  • Мир без времени скачать через торрент бесплатно
  • Мир без рака. История витамина В17 скачать через торрент бесплатно
  • Мир, созданный без изъяна / The World Made Straight (2015) WEB-DLRip | L1 торрент скачать бесплатно
  • Мир, созданный без изъяна / The World Made Straight (2015) WEB-DL 720p | L1 торрент скачать бесплатно
  • Мир, созданный без изъяна / The world made straight (2015) WEB-DL 720p | L1 торрент скачать бесплатно


    • Комментарии (0):

      Информация

      Информация

        Посетители, находящиеся в группе Гости, не могут оставлять комментарии в данной новости.

        ↓ Меню



        ↓ Опрос

        А Вы добавили сайт в закладки?
        Да
        Не


        Top 10 за неделю (Фильмы)