.
Авторизация | Регистрация
Хочешь лучшие торренты? Добавь свой email!
Добавить
» » План побега / Escape Plan (2013) BDRip 1080p | Гаврилов скачать через торрент бесплатно




    План побега / Escape Plan (2013) BDRip 1080p | Гаврилов скачать через торрент бесплатно

    Опубликовал: Админ | Дата: 27-02-2015, 11:10 | Просмотров: 326


    Из самой надежной тюрьмы в одиночку убежать невозможно


    Русское название: План побега
    Русское название в мировом прокате: Escape Plan
    Создали в: 2013
    Категория жанра: Боевик, триллер, детектив
    Снималось в: США, Atmosphere Entertainment MM LLC, Boies/Schiller Film Group, Emmett/Furla Films, Envision Entertainment Corporation, Spiderwood Productions
    Время просмотра: 01:55:35
    Перевод текста: Авторский (одноголосый закадровый) А.Гаврилов
    Субтитры: Английские

    Главный режиссер: Микаэль Хофстрём

    Актеры: Сильвестр Сталлоне, Арнольд Шварценеггер, Джеймс Кэвизел, Фифти Сент, Винни Джонс, Винсент Д`Онофрио, Эми Райан, Сэм Нилл, Каитриона Бэлфи, Фаран Таир

    Сюжет фильма:
    Один из самых выдающихся мировых специалистов по системам безопасности соглашается на последнюю рисковую операцию: сбежать из суперсекретной высокотехнологичной тюрьмы, которую называют Гробницей. Преданный Рэй Бреслин вынужден прибегнуть к помощи напарника — заключенного Эмиля Ротмайера, чтобы разработать отчаянный и практически неосуществимый план побега из самой защищенной тюрьмы в мире!



    Качество фильма: BDRip (1080p)
    Информация о видео: MPEG-4 AVC, 10.3 Мбит/с, 1920x800
    Информация о звуке: Русский (DTS, 6 ch, 1510 Кбит/с), (AC3, 6 ch, 640 Кбит/с), английский (DTS, 6 ch, 1510 Кбит/с)

    MediaInfo
    Формат : Matroska
    Версия формата : Version 2
    Размер файла : 11,2 Гбайт
    Продолжительность : 1 ч. 55 м.
    Общий поток : 13,9 Мбит/сек
    Название фильма : ????°? 1/2 ??? 3/4 ?±?µ???°.2013.BluRay.720p.DTS.AC3.x264
    Дата кодирования : UTC 2014-02-18 17:40:34
    Программа кодирования : mkvmerge v6.7.0 (;Back to the Ground;) 64bit built on Jan 8 2014 15:10:52
    Библиотека кодирования : libebml v1.3.0 libmatroska v1.4.1

    Видео
    Идентификатор : 1
    Формат : AVC
    Формат/Информация : Advanced Video Codec
    Профиль формата : High@L4.1
    Параметр CABAC формата : Да
    Параметр ReFrames формата : 5 кадров
    Идентификатор кодека : V_MPEG4/ISO/AVC
    Продолжительность : 1 ч. 55 м.
    Битрейт : 10,3 Мбит/сек
    Ширина : 1920 пикселей
    Высота : 800 пикселей
    Соотношение сторон : 2,40:1
    Режим частоты кадров : Постоянный
    Частота кадров : 23,976 кадра/сек
    Цветовое пространство : YUV
    Субдискретизация насыщенности : 4:2:0
    Битовая глубина : 8 бит
    Тип развёртки : Прогрессивная
    Бит/(Пиксели*Кадры) : 0.279
    Размер потока : 8,05 Гбайт (72%)
    Заголовок : Escape.Plan.2013
    Библиотека кодирования : x264 core 138 r2356 a1d3d17
    Настройки программы : cabac=1 / ref=5 / deblock=1:-3:-3 / analyse=0x3:0x113 / me=umh / subme=10 / psy=1 / psy_rd=1.00:0.05 / mixed_ref=1 / me_range=32 / chroma_me=1 / trellis=2 / 8x8dct=1 / cqm=0 / deadzone=21,11 / fast_pskip=0 / chroma_qp_offset=-2 / threads=18 / lookahead_threads=1 / sliced_threads=0 / nr=0 / decimate=1 / interlaced=0 / bluray_compat=0 / constrained_intra=0 / bframes=4 / b_pyramid=2 / b_adapt=2 / b_bias=0 / direct=3 / weightb=1 / open_gop=0 / weightp=2 / keyint=250 / keyint_min=23 / scenecut=40 / intra_refresh=0 / rc=2pass / mbtree=0 / bitrate=10260 / ratetol=1.0 / qcomp=0.70 / qpmin=0 / qpmax=69 / qpstep=4 / cplxblur=20.0 / qblur=0.5 / ip_ratio=1.40 / pb_ratio=1.30 / aq=2:1.00
    Язык : English
    Default : Да
    Forced : Нет

    Аудио #1
    Идентификатор : 2
    Формат : DTS
    Формат/Информация : Digital Theater Systems
    Режим : 16
    Параметр Endianness формата : Big
    Идентификатор кодека : A_DTS
    Продолжительность : 1 ч. 55 м.
    Вид битрейта : Постоянный
    Битрейт : 1509 Кбит/сек
    Каналы : 6 каналов
    Расположение каналов : Front: L C R, Side: L R, LFE
    Частота : 48,0 КГц
    Битовая глубина : 24 бит
    Метод сжатия : С потерями
    Размер потока : 1,22 Гбайт (11%)
    Заголовок : Russian DTS 5.1 Gavrilov
    Язык : Russian
    Default : Да
    Forced : Нет

    Аудио #2
    Идентификатор : 3
    Формат : AC-3
    Формат/Информация : Audio Coding 3
    Расширение режима : CM (complete main)
    Параметр Endianness формата : Big
    Идентификатор кодека : A_AC3
    Продолжительность : 1 ч. 55 м.
    Вид битрейта : Постоянный
    Битрейт : 640 Кбит/сек
    Каналы : 6 каналов
    Расположение каналов : Front: L C R, Side: L R, LFE
    Частота : 48,0 КГц
    Битовая глубина : 16 бит
    Метод сжатия : С потерями
    Размер потока : 529 Мбайт (5%)
    Заголовок : Russian AC3 5.1 Gavrilov
    Язык : Russian
    Default : Нет
    Forced : Нет

    Аудио #3
    Идентификатор : 4
    Формат : DTS
    Формат/Информация : Digital Theater Systems
    Режим : 16
    Параметр Endianness формата : Big
    Идентификатор кодека : A_DTS
    Продолжительность : 1 ч. 55 м.
    Вид битрейта : Постоянный
    Битрейт : 1509 Кбит/сек
    Каналы : 6 каналов
    Расположение каналов : Front: L C R, Side: L R, LFE
    Частота : 48,0 КГц
    Битовая глубина : 24 бит
    Метод сжатия : С потерями
    Размер потока : 1,22 Гбайт (11%)
    Заголовок : English DTS 5.1 Original
    Язык : English
    Default : Нет
    Forced : Нет

    Текст #1
    Идентификатор : 5
    Формат : UTF-8
    Идентификатор кодека : S_TEXT/UTF8
    Идентификатор кодека/Информация : UTF-8 Plain Text
    Заголовок : Full
    Язык : English
    Default : Да
    Forced : Нет

    Текст #2
    Идентификатор : 6
    Формат : UTF-8
    Идентификатор кодека : S_TEXT/UTF8
    Идентификатор кодека/Информация : UTF-8 Plain Text
    Заголовок : SDH
    Язык : English
    Default : Нет
    Forced : Нет

    Текст #3
    Идентификатор : 7
    Формат : UTF-8
    Идентификатор кодека : S_TEXT/UTF8
    Идентификатор кодека/Информация : UTF-8 Plain Text
    Заголовок : SDH-COLORED
    Язык : English
    Default : Нет
    Forced : Нет

    Меню
    00:00:00.000 : en:00:00:00.000
    00:06:33.643 : en:00:06:33.643
    00:17:47.441 : en:00:17:47.441
    00:24:19.708 : en:00:24:19.708
    00:36:30.396 : en:00:36:30.396
    00:40:55.869 : en:00:40:55.869
    00:49:48.193 : en:00:49:48.193
    00:57:33.533 : en:00:57:33.533
    01:04:39.834 : en:01:04:39.834
    01:11:53.058 : en:01:11:53.058
    01:18:47.222 : en:01:18:47.222
    01:26:23.886 : en:01:26:23.886
    01:33:03.577 : en:01:33:03.577
    Спасибо!
    За перевод Гаврилова спасибо пользователям Клуба переводов новинок и классики у Гаврилова:
    Denis2251, Wolf_Larsen, chefchef, shtift, rydanes, Pain_70, Tehnar, Xerman13, carter64, feldeger, SavineX, Letyoha3, _MyxAmoP_ , fly32, milocerd0v, Диммон, dunhill200, edsz, Loki, Guyver , nimph, KpucTo161, v111o, -Джосс-, foxlight, Role, Luka69, Brown15, therox, saenwert , Rolly Tyler, Hattori Hanzo, audiolubitel, Gross1978, GaryH, dwser, Jiraya87, Iron Man, ZeRoNe, Shumway, mamachucha66, Aladdin, denis_mgn_1987, DrCrane.
    Скриншоты для ознакомления

    Размер скачиваемого торрента: 11.23 GB (12058750078 Bytes)

    План побега / Escape Plan (2013) BDRip 1080p | Гаврилов скачать через торрент бесплатно
    загрузка...
    Рейтинг →
     (голосов: 1, оценка 3/5, голосовать можно 1 раз )

    Другие торренты по теме:

  • План побега / Escape Plan (2013) HD 720p | L1 | Трейлер
  • План побега (2013)
  • План побега / Escape Plan (2013) CAMRip
  • OST - План побега / Escape Plan (2013) MP3
  • План побега / Escape Plan (2013) TS
  • План побега / Escape Plan (2013) WEBRip-AVC | Звук с TS
  • План побега / Escape Plan (2013) WEBRip | Звук с TS скачать через торрент бесплатно
  • План побега / Escape Plan (2013) HDTVRip | Звук с TS скачать через торрент бесплатно


    • Комментарии (0):

      Информация

      Информация

        Посетители, находящиеся в группе Гости, не могут оставлять комментарии в данной новости.

        ↓ Меню



        ↓ Опрос

        А Вы добавили сайт в закладки?
        Да
        Не


        Top 10 за месяц (Фильмы)