.
Авторизация | Регистрация
Хочешь лучшие торренты? Добавь свой email!
Добавить
» » Пила 4 / Saw IV (2007) BDRip 720p | Unrated Directors Cut скачать через торрент бесплатно




    Пила 4 / Saw IV (2007) BDRip 720p | Unrated Directors Cut скачать через торрент бесплатно

    Опубликовал: Админ | Дата: 27-02-2015, 11:10 | Просмотров: 288

    Детально о кино
    Русское название: Пила 4
    Русское название в мировом прокате: Saw IV
    Создали в: 2007
    Категория жанра: ужасы, триллер, детектив
    Главный режиссер: Даррен Линн Боусман
    Актеры: Тобин Белл, Костас Мэндилор, Скотт Гордон-Паттерсон, Бетси Расселл, Лайрик Бент, Афина Карканис, Луис Феррейра, Саймон Рейнольдс, Донни Уолберг, Энгус МакФадьен

    Сюжет фильма:
    Получив известие об убийстве детектива Кэрри, два опытных сотрудника ФБР, агент Стрэм и агент Перез, прибывают в полицейский участок, чтобы помочь старому детективу Хоффману проанализировать последнюю ужасную игру Пилы и соединить все части головоломки.

    Однако, когда капитан Ригг, последний полицейский, нетронутый Пилой, оказывается похищен и вовлечен в чудовищную игру маньяка, у офицера остается лишь девяносто минут, чтобы обнаружить ряд взаимосвязанных ловушек… или оказаться перед лицом их беспощадных последствий.

    В то время, как Ригга по всему городу преследуют следы трупов, детектив Хоффман и ФБР обнаруживают глубоко спрятанные ключи к разгадке, которые приводят их назад к бывшей жене Пилы — Джил.



    Снималось в: США, Канада
    Киностудия: Twisted Pictures
    Время просмотра: 01:33:35
    Перевод текста:
    Профессиональный (дублированный)
    Профессиональный (многоголосый закадровый) | Киномания
    Любительский (одноголосый закадровый) | Madrid
    Авторский | Немахов Юрий

    Все дороги кроме Немахова и Madrid с Remux
    Спасибо sergey_n

    Файл
    Качество фильма: BDRip 720p | Source: BDRemux (HDClub)
    Информация о видео: x264, 1280x720 (16:9), 23.976 fps, 5552 Kbps
    Информация о звуке:
    Russian; DTS, 5.1 ch, 1509 Kbps, 48.0 kHz, CBR | Dub
    English; DTS, 5.1 ch, 1509 Kbps, 48.0 kHz, CBR
    Отдельно:
    Russian; AC-3, 5.1 ch, 448 Kbps, 48.0 kHz, CBR | MVO
    Russian; DTS, 5.1 ch, 1509 Kbps, 48.0 kHz, CBR | VO
    Russian; DTS, 5.1 ch, 1509 Kbps, 48.0 kHz, CBR | AVO
    Субтитры: русские, английские

    SAMPLE (со всеми аудиодорогами)

    Релиз подготовил: by Skazhutin

    x264 log
    y4m info: 1280x720p 1:1 @ 24000/1001 fps (cfr)
    x264 info: using SAR=1/1
    x264 info: using cpu capabilities: MMX2 SSE2Fast SSSE3 FastShuffle SSE4.1 Cache64
    x264 info: profile High, level 4.1
    x264 info: frame I:1281 Avg QP:16.48 size:107325 PSNR Mean Y:47.97 U:48.93 V:49.85 Avg:48.23 Global:47.47
    x264 info: frame P:30582 Avg QP:17.53 size: 49815 PSNR Mean Y:47.78 U:49.34 V:50.91 Avg:48.05 Global:46.55
    x264 info: frame B:102757 Avg QP:19.93 size: 21760 PSNR Mean Y:45.65 U:47.87 V:49.70 Avg:46.14 Global:44.99
    x264 info: consecutive B-frames: 2.4% 3.4% 7.9% 18.5% 20.9% 35.2% 6.1% 1.7% 1.8% 2.0%
    x264 info: mb I I16..4: 7.1% 84.4% 8.5%
    x264 info: mb P I16..4: 3.8% 25.6% 1.9% P16..4: 30.7% 22.1% 9.2% 0.0% 0.0% skip: 6.6%
    x264 info: mb B I16..4: 0.4% 1.8% 0.1% B16..8: 40.0% 12.8% 2.6% direct:13.5% skip:28.9% L0:43.2% L1:46.9% BI: 9.9%
    x264 info: 8x8 transform intra:81.2% inter:70.3%
    x264 info: direct mvs spatial:99.9% temporal:0.1%
    x264 info: coded y,uvDC,uvAC intra: 79.6% 89.2% 75.8% inter: 33.4% 41.5% 19.7%
    x264 info: i16 v,h,dc,p: 57% 11% 11% 22%
    x264 info: i8 v,h,dc,ddl,ddr,vr,hd,vl,hu: 9% 7% 9% 10% 14% 13% 13% 12% 13%
    x264 info: i4 v,h,dc,ddl,ddr,vr,hd,vl,hu: 9% 7% 6% 10% 16% 14% 14% 11% 13%
    x264 info: i8c dc,h,v,p: 57% 14% 14% 15%
    x264 info: Weighted P-Frames: Y:3.5%
    x264 info: ref P L0: 46.7% 7.2% 20.6% 7.8% 6.4% 4.4% 4.0% 2.5% 0.4% 0.0%
    x264 info: ref B L0: 73.8% 13.1% 6.1% 3.2% 2.2% 1.2% 0.5%
    x264 info: ref B L1: 92.2% 7.8%
    x264 info: SSIM Mean Y:0.9823030 (17.521db)
    x264 info: PSNR Mean Y:46.156 U:48.211 V:49.977 Avg:46.593 Global:45.319 kb/s:5552.35
    encoded 134620 frames, 2.69 fps, 5552.35 kb/s
    MediaInfo
    Общее
    Уникальный идентификатор : 239092838842768246579542652471699797385 (0xB3DF9B14807B5DE19697AD8F59137589)
    Полное имя : Saw.IV.2007.720p.BluRay.x264.rus.eng-Skazhutin.mkv
    Формат : Matroska
    Версия формата : Version 2
    Размер файла : 5,60 Гбайт
    Продолжительность : 1 ч. 33 м.
    Общий поток : 8574 Кбит/сек
    Кодирование произвёл : tRuAVC @ HD UploadersSkazhutin
    Дата кодирования : UTC 2010-09-23 04:03:52
    Программа кодирования : mkvmerge v4.3.0 (;Escape from the Island;) built on Sep 5 2010 10:30:51
    Библиотека кодирования : libebml v1.0.0 libmatroska v1.0.0
    TITLE : Saw IV (2007) tRuAVC @ HD Uploaders
    DATE_RELEASED : September 23th 2010
    COMMENT : BDRip/x264/AC3/DTS (Source: MPEG-4 AVC Video / 17173 kbps / 1080p / 23,976 fps / 16:9 / High Profile 4.1)
    Attachment : Yes / Yes

    Видео
    Идентификатор : 1
    Формат : AVC
    Формат/Информация : Advanced Video Codec
    Профиль формата : High@L4.1
    Параметр CABAC формата : Да
    Параметр ReFrames формата : 8 кадров
    Идентификатор кодека : V_MPEG4/ISO/AVC
    Продолжительность : 1 ч. 33 м.
    Битрейт : 5385 Кбит/сек
    Ширина : 1280 пикселей
    Высота : 720 пикселей
    Соотношение сторон : 16:9
    Режим частоты кадров : Постоянный
    Частота кадров : 23,976 кадра/сек
    Цветовое пространство : YUV
    Субдискретизация насыщенности : 4:2:0
    Битовая глубина : 8 бит
    Тип развёртки : Прогрессивная
    Бит/(Пиксели*Кадры) : 0.244
    Размер потока : 3,52 Гбайт (63%)
    Заголовок : 1280x720 (16:9); 5552 Kbps; 23,976 fps; 0,251 bpp
    Библиотека кодирования : x264 core 105 r1724 b02df7b
    Настройки программы : cabac=1 / ref=8 / deblock=1:-3:-3 / analyse=0x3:0x113 / me=umh / subme=10 / psy=1 / psy_rd=1.10:0.00 / mixed_ref=1 / me_range=32 / chroma_me=1 / trellis=2 / 8x8dct=1 / cqm=0 / deadzone=21,11 / fast_pskip=1 / chroma_qp_offset=-2 / threads=6 / sliced_threads=0 / nr=0 / decimate=1 / interlaced=0 / constrained_intra=0 / bframes=9 / b_pyramid=2 / b_adapt=2 / b_bias=0 / direct=3 / weightb=1 / open_gop=0 / weightp=2 / keyint=250 / keyint_min=23 / scenecut=40 / intra_refresh=0 / rc_lookahead=60 / rc=crf / mbtree=0 / crf=19.0 / qcomp=0.65 / qpmin=10 / qpmax=51 / qpstep=4 / vbv_maxrate=50000 / vbv_bufsize=62500 / crf_max=0.0 / ip_ratio=1.40 / pb_ratio=1.30 / aq=1:1.00 / zones=128954,134619,q=30 / nal_hrd=none
    Язык : English
    Default : Да
    Forced : Нет
    Коэффициенты матрицы : BT.709

    Аудио #1
    Идентификатор : 2
    Формат : DTS
    Формат/Информация : Digital Theater Systems
    Режим : 16
    Параметр Endianness формата : Big
    Идентификатор кодека : A_DTS
    Продолжительность : 1 ч. 33 м.
    Вид битрейта : Постоянный
    Битрейт : 1510 Кбит/сек
    Каналы : 6 каналов
    Расположение каналов : Front: L C R, Side: L R, LFE
    Частота : 48,0 КГц
    Битовая глубина : 24 бит
    Метод сжатия : С потерями
    Размер потока : 1011 Мбайт (18%)
    Заголовок : DTS Audio / 5.1 / 48 kHz / 1509 kbps / 24-bit; Dub
    Язык : Russian
    Default : Да
    Forced : Нет

    Аудио #2
    Идентификатор : 3
    Формат : DTS
    Формат/Информация : Digital Theater Systems
    Режим : 16
    Параметр Endianness формата : Big
    Идентификатор кодека : A_DTS
    Продолжительность : 1 ч. 33 м.
    Вид битрейта : Постоянный
    Битрейт : 1509 Кбит/сек
    Каналы : 6 каналов
    Расположение каналов : Front: L C R, Side: L R, LFE
    Частота : 48,0 КГц
    Битовая глубина : 24 бит
    Метод сжатия : С потерями
    Размер потока : 1010 Мбайт (18%)
    Заголовок : DTS Audio / 5.1 / 48 kHz / 1509 kbps / 24-bit; Original
    Язык : English
    Default : Нет
    Forced : Нет

    Текст #1
    Идентификатор : 4
    Формат : UTF-8
    Идентификатор кодека : S_TEXT/UTF8
    Идентификатор кодека/Информация : UTF-8 Plain Text
    Язык : Russian
    Default : Нет
    Forced : Нет

    Текст #2
    Идентификатор : 5
    Формат : UTF-8
    Идентификатор кодека : S_TEXT/UTF8
    Идентификатор кодека/Информация : UTF-8 Plain Text
    Язык : English
    Default : Нет
    Forced : Нет

    Меню
    00:00:00.000 : en:Chapter 1
    00:06:08.533 : en:Chapter 2
    00:09:34.133 : en:Chapter 3
    00:13:25.366 : en:Chapter 4
    00:15:10.499 : en:Chapter 5
    00:18:00.966 : en:Chapter 6
    00:19:02.466 : en:Chapter 7
    00:22:32.833 : en:Chapter 8
    00:25:53.200 : en:Chapter 9
    00:28:28.667 : en:Chapter 10
    00:32:16.667 : en:Chapter 11
    00:34:15.034 : en:Chapter 12
    00:39:44.300 : en:Chapter 13
    00:40:44.833 : en:Chapter 14
    00:43:08.833 : en:Chapter 15
    00:46:36.166 : en:Chapter 16
    00:50:49.299 : en:Chapter 17
    00:52:36.133 : en:Chapter 18
    00:55:04.199 : en:Chapter 19
    01:01:16.532 : en:Chapter 20
    01:06:13.865 : en:Chapter 21
    01:17:33.199 : en:Chapter 22
    01:20:36.832 : en:Chapter 23
    01:24:51.732 : en:Chapter 24
    Скриншоты для ознакомления

    Размер скачиваемого торрента: 7.87 GB (8451595803 Bytes)

    Пила 4 / Saw IV (2007) BDRip 720p | Unrated Directors Cut скачать через торрент бесплатно
    загрузка...
    Рейтинг →
     (голосов: 1, оценка 3/5, голосовать можно 1 раз )

    Другие торренты по теме:

  • Пила 4 / Saw IV (2007) BDRip от HQ-ViDEO | Unrated Directors Cut
  • Пила 4 / Saw IV (2007) BDRip 720p от Leonardo and Scarabey | Режиссерская версия скачать через торрент бесплатно


    • Комментарии (0):

      Информация

      Информация

        Посетители, находящиеся в группе Гости, не могут оставлять комментарии в данной новости.

        ↓ Меню



        ↓ Опрос

        А Вы добавили сайт в закладки?
        Да
        Не


        Top 10 за месяц (Фильмы)