.
Авторизация | Регистрация
» » Иллюзия убийства / F / X (1986) HDTVRip от New-Team скачать через торрент бесплатно




    Иллюзия убийства / F / X (1986) HDTVRip от New-Team скачать через торрент бесплатно

    Опубликовал: Админ | Дата: 27-02-2015, 11:10 | Просмотров: 377


    Снималось в: США
    Создали в: Dodi Fayed - Jack Wiener, Orion Pictures Corporation
    Категория жанра: боевик, триллер, криминал
    Создали в: 1986
    Время просмотра: 01:43:51

    Перевод текста: Профессиональный (дублированный) Профессиональный (многоголосый закадровый)
    Оригинальная аудиодорожка: английский
    Субтитры подготовлены: нет

    Главный режиссер: Роберт Мандел / Robert Mandel

    Актеры:
    Брайан Браун, Брайан Деннехи, Диана Венора, Клифф Де Янг, Джерри Орбах, Джо Грифази, Марта Геман, Анжела Бассетт, Роско Орман, Трей Уилсон...

    Роли дублировали:
    Сергей Чекан, Борис Быстров, Ольга Гаспарова, Александр Новиков, Ирина Губанова...

    Сюжет:
    В шоу-бизнесе нет лучшего мастера спецэффектов, чем Ролли Тайлер. Его уникальные способности создавать на экране грандиозные иллюзии приносят ему множество заказов от крупнейших студий Голливуда. На этот раз его заказчиком становится… Министерство юстиции. Суть дела: разыграть убийство важного свидетеля, дающего показания против теневых воротил. Задуманная постановка проходит как по маслу, но в результате осведомитель бесследно исчезает, а недоумевающему и ошеломленному Ролли пришивают убийство. Обманутый и преследуемый бывшими работодателями — Отделом полиции Нью-Йорка — Ролли быстро понимает, что никому не может доверять, и единственное средство сохранить жизнь — его несравнимое искусство мистификатора...




    Исходник: HDTVRip 1080i
    Тип релиза: HDTVRip
    Контейнер: AVI

    Информация о видео: 720x384 (1,875:1), 25 fps, XviD ~ 1231 kbps avg, 0.178 bit/pixel
    Информация о звуке: 48 kHz, Dolby Digital AC3 2.0, 192 kbps DUB
    Информация о звуке: 48 kHz, Dolby Digital AC3 2.0, 192 kbps MVO
    Информация о звуке: 48 kHz, Dolby Digital AC3 2.0, 384 kbps Английский

    Раздача от:
    MediaInfo

    Общее
    Полное имя : Illyuziya.ubiystva.1985.HDTVRip_New-team_by_AVP_Studio.avi
    Формат : AVI
    Формат/Информация : Audio Video Interleave
    Размер файла : 1,46 Гбайт
    Продолжительность : 1 ч. 43 м.
    Общий поток : 2018 Кбит/сек
    Программа кодирования : VirtualDubModRus 1.5.10.2 (build 2542/release)
    Библиотека кодирования : VirtualDubMod build 2542/release

    Видео
    Идентификатор : 0
    Формат : MPEG-4 Visual
    Профиль формата : Advanced Simple@L5
    Параметр BVOP формата : 1
    Параметр QPel формата : Нет
    Параметр GMC формата : Без точки перехода
    Параметр матрицы формата : Выборочная
    Идентификатор кодека : XVID
    Идентификатор кодека/Подсказка : XviD
    Продолжительность : 1 ч. 43 м.
    Битрейт : 1231 Кбит/сек
    Ширина : 720 пикселей
    Высота : 384 пикселя
    Соотношение сторон : 1,85:1
    Частота кадров : 25,000 кадров/сек
    Цветовое пространство : YUV
    Субдискретизация насыщенности : 4:2:0
    Битовая глубина : 8 бит
    Тип развёртки : Прогрессивная
    Метод сжатия : С потерями
    Бит/(Пиксели*Кадры) : 0.178
    Размер потока : 914 Мбайт (61%)
    Библиотека кодирования : XviD 73

    Аудио #1
    Идентификатор : 1
    Формат : AC-3
    Формат/Информация : Audio Coding 3
    Расширение режима : CM (complete main)
    Параметр Endianness формата : Big
    Идентификатор кодека : 2000
    Продолжительность : 1 ч. 43 м.
    Вид битрейта : Постоянный
    Битрейт : 192 Кбит/сек
    Каналы : 2 канала
    Расположение каналов : Front: L R
    Частота : 48,0 КГц
    Битовая глубина : 16 бит
    Метод сжатия : С потерями
    Задержка видео : 1 мс.
    Размер потока : 143 Мбайт (10%)
    Выравнивание : Разделение по промежуткам
    Продолжительность промежутка : 40 мс. (1,00 видеокадр)
    Время предзагрузки промежутка : 500 мс.

    Аудио #2
    Идентификатор : 2
    Формат : AC-3
    Формат/Информация : Audio Coding 3
    Расширение режима : CM (complete main)
    Параметр Endianness формата : Big
    Идентификатор кодека : 2000
    Продолжительность : 1 ч. 43 м.
    Вид битрейта : Постоянный
    Битрейт : 192 Кбит/сек
    Каналы : 2 канала
    Расположение каналов : Front: L R
    Частота : 48,0 КГц
    Битовая глубина : 16 бит
    Метод сжатия : С потерями
    Размер потока : 143 Мбайт (10%)
    Выравнивание : Разделение по промежуткам
    Продолжительность промежутка : 40 мс. (1,00 видеокадр)
    Время предзагрузки промежутка : 500 мс.

    Аудио #3
    Идентификатор : 3
    Формат : AC-3
    Формат/Информация : Audio Coding 3
    Профиль формата : Dolby Digital
    Расширение режима : CM (complete main)
    Параметр Endianness формата : Big
    Идентификатор кодека : 2000
    Продолжительность : 1 ч. 43 м.
    Вид битрейта : Постоянный
    Битрейт : 384 Кбит/сек
    Каналы : 2 канала
    Расположение каналов : Front: L R
    Частота : 48,0 КГц
    Битовая глубина : 16 бит
    Метод сжатия : С потерями
    Размер потока : 285 Мбайт (19%)
    Выравнивание : Разделение по промежуткам
    Продолжительность промежутка : 40 мс. (1,00 видеокадр)
    Время предзагрузки промежутка : 500 мс

    Скриншоты для ознакомления



    Залил: AVPStudio
    Размер скачиваемого торрента: 1.46 GB (1572050944 Bytes)

    Иллюзия убийства / F/X (1986) HDTVRip от New-Team скачать через торрент бесплатно
    загрузка...
    Рейтинг →
     (голосов: 1, оценка 5/5, голосовать можно 1 раз )

    Другие торренты по теме:

  • Иллюзия убийства / F / X Murder by Illusion (1986) HDTVRip 1080p от renta23 торрент скачать бесплатно
  • Иллюзия убийства 2 - смертельное искусство / F / X2: The Deadly Art Of Illusion (1991) HDTVRip 1080p от renta23 торрент скачать бесплатно
  • Иллюзия убийства / F / X (1986) HDTVRip-AVC от New-Team торрент скачать бесплатно
  • Иллюзия убийства / F / X: The Series (1996 - 1997) SATRip от Brazzass скачать через торрент бесплатно
  • Иллюзия убийства: Дилогия / F / X: Dilogy (1986-1991) BDRip 720p скачать через торрент бесплатно
  • Иллюзия убийства / F / X (1986) BDRip 1080p | D, P, P1, A скачать торрент бесплатно
  • Иллюзия убийства / F / X (1986) BDRip 1080p скачать торрент бесплатно
  • Иллюзия убийства / F / X (1986) BDRip-AVC скачать торрент бесплатно


    • Комментарии (0):

      Информация

      Информация

        Посетители, находящиеся в группе Гости, не могут оставлять комментарии в данной новости.

        ↓ Меню



        ↓ Опрос

        А Вы добавили сайт в закладки?
        Да
        Не


        Top 10 за неделю (Фильмы)