.
Авторизация | Регистрация
» » Он пошёл один / Er ging allein (1967) SATRip торрент скачать бесплатно




    Он пошёл один / Er ging allein (1967) SATRip торрент скачать бесплатно

    Опубликовал: Админ | Дата: 27-02-2015, 11:10 | Просмотров: 543



    Детально о киноОн пошёл один
    Русское название в мировом прокате: Er ging allein
    Создали в: 1967
    Категория жанра: Детектив
    Главный режиссер: Ханс Иоахим Хильдебрандт
    Актеры: Вернер Тельке, Елена Жигон, Хорст Дринда, Ханс-Иоахим Ханеш, Гарри Хиндемит, Эрих-Александер Виндс, Херберт Кефер, Хайнц Хинце, Вальтер Никлаус, Хайнц Шольц

    Сюжет фильма: Частный детектив Вебер приезжает в Рендсхаген для расследования дела о похищении у некого Гердтса фотодокументов, обличающих бывших эсэсовцев. Он находит Гердтса убитым и, вопреки запрету полиции, начинает собственное расследование и, очевидно, нападает на след, потому что, приглашенный столпами рендсхагенского общества на охоту, гибнет сраженный чьим-то выстрелом, чтобы потом, воскреснув, завершить начатое дело.



    Снималось в: Германия (ГДР)
    Киностудия: Deutsche Film (DEFA)
    Время просмотра: 2 x ~ 01:20:35
    Перевод текста: Дублированный

    Файл
    Тип релиза: AVI
    Информация о видео: DivX, ~ 1712 Кбит/с, 640x480, 25 fps
    Информация о звуке: АС3, 2 ch, 192 Кбит/с

    Семпл

    MediaInfo
    Общее
    Полное имя : D:залитьОн пошел один1 серия.avi
    Формат : AVI
    Формат/Информация : Audio Video Interleave
    Размер файла : 1,11 Гбайт
    Продолжительность : 1 ч. 23 м.
    Общий поток : 1911 Кбит/сек
    Программа кодирования : VirtualDubMod 1.5.10.2 (build 2540/release)
    Библиотека кодирования : VirtualDubMod build 2540/release

    Видео
    Идентификатор : 0
    Формат : MPEG-4 Visual
    Параметр BVOP формата : 1
    Параметр QPel формата : Нет
    Параметр GMC формата : Без точки перехода
    Параметр матрицы формата : Default (H.263)
    Режим смешивания : Сжатый битовый поток
    Идентификатор кодека : DX50
    Идентификатор кодека/Подсказка : DivX 5
    Продолжительность : 1 ч. 23 м.
    Битрейт : 1709 Кбит/сек
    Ширина : 640 пикселей
    Высота : 480 пикселей
    Соотношение сторон : 4:3
    Частота кадров : 25,000 кадров/сек
    Цветовое пространство : YUV
    Субдискретизация насыщенности : 4:2:0
    Битовая глубина : 8 бит
    Тип развёртки : Прогрессивная
    Метод сжатия : С потерями
    Бит/(Пиксели*Кадры) : 0.223
    Размер потока : 1018 Мбайт (89%)
    Библиотека кодирования : DivX 6.8.5 (UTC 2009-08-20)

    Аудио
    Идентификатор : 1
    Формат : AC-3
    Формат/Информация : Audio Coding 3
    Расширение режима : CM (complete main)
    Параметр Endianness формата : Big
    Идентификатор кодека : 2000
    Продолжительность : 1 ч. 23 м.
    Вид битрейта : Постоянный
    Битрейт : 192 Кбит/сек
    Каналы : 2 канала
    Расположение каналов : Front: L R
    Частота : 48,0 КГц
    Битовая глубина : 16 бит
    Метод сжатия : С потерями
    Размер потока : 114 Мбайт (10%)
    Выравнивание : Разделение по промежуткам
    Продолжительность промежутка : 40 мс. (1,00 видеокадр)
    Время предзагрузки промежутка : 500 мс.
    Скриншоты для ознакомления



    Релиз:
    Залил: YArl
    Размер скачиваемого торрента: 2.22 GB (2385575936 Bytes)

    Он пошёл один / Er ging allein (1967) SATRip торрент скачать бесплатно
    загрузка...
    Рейтинг →
     (голосов: 1, оценка 5/5, голосовать можно 1 раз )

    Другие торренты по теме:

  • Да пошёл ты! / Val dood! (2009) IPTVRip от Pshichko66 скачать торрент бесплатно


    • Комментарии (0):

      Информация

      Информация

        Посетители, находящиеся в группе Гости, не могут оставлять комментарии в данной новости.

        ↓ Меню



        ↓ Опрос

        А Вы добавили сайт в закладки?
        Да
        Не


        Top 10 за неделю (Фильмы)