.
Авторизация | Регистрация
» » Ричард: Львиное Сердце / Richard: The Lionheart (2013) BDRip 720p от CINEMANIA | L1 торрент скачать бесплатно




    Ричард: Львиное Сердце / Richard: The Lionheart (2013) BDRip 720p от CINEMANIA | L1 торрент скачать бесплатно

    Опубликовал: Админ | Дата: 27-02-2015, 11:10 | Просмотров: 248



    Детально о кино
    Русское название: Ричард: Львиное Сердце
    Русское название в мировом прокате: Richard: The Lionheart
    Создали в: 2013
    Категория жанра: фэнтези, боевик, приключения
    Главный режиссер: Стефано Милла
    Актеры: Малкольм МакДауэлл, Стюарт Арнольд, Вероника Калилли, Чандлер Манесс, Маурицио Корильяно, Давид Фериччио, Шэрон Фрайер, Кристофер Джонес, Бертон Перез

    Сюжет фильма:
    Действие фильма разворачивается в славные времена великих английских королей, когда славным был тот человек, который мог сражаться за славу короны. Мудрый король средних лет Генри II решает проверить своего юного сына-наследного принца Ричарда на честность, справедливость и лояльность. А потому Ричард должен поехать в секретный замок Мученик Рыцаря с тайным королевским заданием. Только сыскав славу храброго и справедливого рыцаря, принц Ричард сможет занять положенный наследнику по рождению королевский трон. Однако придворные ненавистники желают сбросить династию с трона, а потому постараются не допустить того, чтобы Ричард смог пройти испытание. Будущему королю придется доказать, что сердце у него действительно львиное, как и душа.



    Снималось в: США, Италия
    Время просмотра: 01:44:14
    Тип перевода: Любительское (одноголосое) VANO

    Файл
    Тип видео: MKV
    Качество фильма: BDRip 720p PHD
    Информация о видео: 4132 kb/s, 1280x538
    Информация о звуке: Russian: AC3, 448 kb/s (6 ch) / English: DTS, 768 kb/s (6 ch)
    Дополнительно: Сохранены оригинальные чаптеры как на Blu-Ray
    Размер скачиваемого торрента: 3.81 GB
    Скачать: Сэмпл

    Релиз группы:



    NFO
    Общее
    Richard.The.Lionheart.2013.Blu.Ray.720p.CINEMANIA.mkv
    Формат : Matroska
    Версия формата : Version 4 / Version 2
    Размер файла : 3,81 Гбайт
    Продолжительность : 1 ч. 39 м.
    Общий поток : 5456 Кбит/сек
    Название фильма : Release Group CINEMANIA
    Дата кодирования : UTC 2014-02-19 15:38:40
    Программа кодирования : mkvmerge v6.7.0 (;Back to the Ground;) 64bit built on Jan 8 2014 15:10:52
    Библиотека кодирования : libebml v1.3.0 libmatroska v1.4.1

    Видео
    Идентификатор : 1
    Формат : AVC
    Формат/Информация : Advanced Video Codec
    Профиль формата : High@L4.1
    Параметр CABAC формата : Да
    Параметр ReFrames формата : 5 кадров
    Идентификатор кодека : V_MPEG4/ISO/AVC
    Продолжительность : 1 ч. 39 м.
    Битрейт : 4132 Кбит/сек
    Ширина : 1280 пикселей
    Высота : 538 пикселей
    Соотношение сторон : 2,40:1
    Режим частоты кадров : Постоянный
    Частота кадров : 29,970 кадров/сек
    Цветовое пространство : YUV
    Субдискретизация насыщенности : 4:2:0
    Битовая глубина : 8 бит
    Тип развёртки : Прогрессивная
    Бит/(Пиксели*Кадры) : 0.200
    Размер потока : 2,88 Гбайт (76%)
    Заголовок : Release Group CINEMANIA
    Язык : English
    Default : Да
    Forced : Нет

    Аудио #1
    Идентификатор : 2
    Формат : AC-3
    Формат/Информация : Audio Coding 3
    Расширение режима : CM (complete main)
    Параметр Endianness формата : Big
    Идентификатор кодека : A_AC3
    Продолжительность : 1 ч. 39 м.
    Вид битрейта : Постоянный
    Битрейт : 448 Кбит/сек
    Каналы : 6 каналов
    Расположение каналов : Front: L C R, Side: L R, LFE
    Частота : 48,0 КГц
    Битовая глубина : 16 бит
    Метод сжатия : С потерями
    Размер потока : 320 Мбайт (8%)
    Заголовок : VANO
    Язык : Russian
    Default : Да
    Forced : Да

    Аудио #2
    Идентификатор : 3
    Формат : DTS
    Формат/Информация : Digital Theater Systems
    Профиль формата : ES
    Режим : 16
    Параметр Endianness формата : Big
    Идентификатор кодека : A_DTS
    Продолжительность : 1 ч. 39 м.
    Вид битрейта : Постоянный
    Битрейт : 768 Кбит/сек
    Каналы : 6 каналов
    Расположение каналов : Front: L C R, Side: L R, LFE
    Частота : 48,0 КГц
    Битовая глубина : 24 бит
    Метод сжатия : С потерями
    Размер потока : 549 Мбайт (14%)
    Язык : English
    Default : Нет
    Forced : Нет

    Меню
    00:00:00.000 : en:00:00:00.000
    00:07:40.927 : en:00:07:40.927
    00:15:33.933 : en:00:15:33.933
    00:25:03.035 : en:00:25:03.035
    00:35:04.235 : en:00:35:04.235
    00:43:49.227 : en:00:43:49.227
    00:54:22.526 : en:00:54:22.526
    01:02:59.509 : en:01:02:59.509
    01:13:04.780 : en:01:13:04.780
    01:22:29.878 : en:01:22:29.878
    01:30:06.801 : en:01:30:06.801
    01:35:36.464 : en:01:35:36.464


    Залил: DGEKIGAN
    Размер скачиваемого торрента: 3.81 GB (4090700368 Bytes)

    Ричард: Львиное Сердце / Richard: The Lionheart (2013) BDRip 720p от CINEMANIA | L1 торрент скачать бесплатно
    загрузка...
    Рейтинг →
     (голосов: 1, оценка 5/5, голосовать можно 1 раз )

    Другие торренты по теме:

  • Ричард: Львиное сердце / Richard: The Lionheart (2013) DVDRip от INTERCINEMA | L1 торрент скачать бесплатно
  • Ричард: Львиное Сердце / Richard: The Lionheart (2013) WEB-DLRip | L1 торрент скачать бесплатно
  • Ричард: Львиное сердце / Richard: The Lionheart (2013) HDRip | L1 скачать через торрент бесплатно
  • Ричард: Львиное Сердце / Richard: The Lionheart (2013) BDRip 1080p от CINEMANIA | L1 торрент скачать бесплатно
  • Ричард: Львиное Сердце / Richard: The Lionheart (2013) BDRip 720p от CINEMANIA | P, L1 торрент скачать бесплатно
  • Ричард: Львиное Сердце / Richard: The Lionheart (2013) BDRip 1080p от CINEMANIA | P, L1 торрент скачать бесплатно
  • Ричард Львиное Сердце / King Richard and the Crusaders (1954) DVDRip-AVC | P, P2 скачать торрент бесплатно


    • Комментарии (0):

      Информация

      Информация

        Посетители, находящиеся в группе Гости, не могут оставлять комментарии в данной новости.

        ↓ Меню



        ↓ Опрос

        А Вы добавили сайт в закладки?
        Да
        Не


        Top 10 за неделю (Фильмы)