.
Авторизация | Регистрация
» » Отмеченный смертью / Помеченный смертью / Нико-3 / Marked for Death (1990) BDRip-AVC от 0ptimus | D, P, P2, A, L1 торрент скачать бесплатно




    Отмеченный смертью / Помеченный смертью / Нико-3 / Marked for Death (1990) BDRip-AVC от 0ptimus | D, P, P2, A, L1 торрент скачать бесплатно

    Опубликовал: Админ | Дата: 27-02-2015, 11:10 | Просмотров: 312



    Детально о кино
    Русское название: Отмеченный смертью / Помеченный смертью / Нико-3
    Русское название в мировом прокате: Marked for Death
    Создали в: 1990
    Категория жанра: боевик, триллер, драма, криминал
    Главный режиссер: Дуайт Х. Литтл
    Актеры: Стивен Сигал, Бейзил Уоллес, Кит Дэвид, Том Райт, Джоанна Пакула, Элизабет Грэйсен, Бетти Форд, Даниэль Харрис, Эл Израэл, Арлен Дин Снайдер, Виктор Ромеро Эванс, Майкл Ральф, Джеффри Андерсон-Гюнтер, Тони ДиБенедетто, Кевин Данн, Питер Джейсон, Дэнни Трехо, Том Дуган, Рита Верреос, Джо Рентериа, Гэри Сервантес, Вейн Монтанио, Ник Корелло, Грант Гельт, Джастин Мерфи

    Сюжет фильма:
    После смерти напарника Джон Хэтчер, специальный агент отдела по борьбе с наркотиками, решает подать в отставку. Переехав к своей сестре в Чикаго, Хэтчер намеревается вести тихое и размеренное существование. Но этому не суждено было сбыться. На пути у бывшего полицейского встает ямайская наркомафия во главе со своим жутким главарем по прозвищу Зомби. Хэтчер оказывается втянутым в кровавые разборки.



    Снималось в: США
    Киностудия: Victor Grais, Steamroller Productions
    Время просмотра: 01:33:19
    Перевод текста: Дублированный, профессиональный (многоголосый закадровый), профессиональный (двухголосый закадровый), авторский (одноголосый закадровый), любительский (одноголосый закадровый)

    Файл
    Кодек для видео: h.264
    Качество фильма: BDRip-AVC
    Информация о видео: 3246 Кбит/с, 1024x434, 23.976 кадр/с

    Информация о звуке:
    • №1: Русский (AC3, 2 ch, 192 Кбит/с) Дублированный Студия Хлопушка
    • №2: Русский (AC3, 6 ch, 384 Кбит/с) Профессиональный многоголосый Blu-ray CEE/ОРТ
    • №3: Русский (AC3, 6 ch, 384 Кбит/с) Авторский одноголосый Андрей Гаврилов
    • №4: Английский (AC3, 6 ch, 384 Кбит/с)
    Отдельно:
    • №5: Русский (AC3, 2 ch, 192 Кбит/с) Профессиональный двухголосый Премьер-Видео
    • №6: Русский (AC3, 2 ch, 192 Кбит/с) Профессиональный двухголосый РенТВ
    • №7: Русский (AC3, 6 ch, 384 Кбит/с) Авторский одноголосый Алексей Михалев
    • №8: Русский (AC3, 2 ch, 192 Кбит/с) Авторский одноголосый Павел Прямостанов
    • №9: Русский (AC3, 2 ch, 192 Кбит/с) Людительский одноголосый Никитин
    • №10: Украинский (AC3, 6 ch, 384 Кбит/с) Профессиональный двухголосый 1 1

    Субтитры: Русские, украинские, английские

    MediaInfo и x264 log

    Полное имя : Otmechennij.smertju.1990.x264.BDRip.(AVC).0ptimus.mkv
    Формат : Matroska
    Версия формата : Version 4 / Version 2
    Размер файла : 2,99 Гбайт
    Продолжительность : 1 ч. 33 м.
    Общий поток : 4593 Кбит/сек
    Название фильма : Помеченный смертью | Отмеченный смертью) | Нико-3 | Marked for Death 1990 -=BDRip (AVC) by 0ptimus=-
    Дата кодирования : UTC 2013-07-29 15:25:21
    Программа кодирования : mkvmerge v6.1.0 (;Old Devil;) built on Mar 2 2013 14:32:37
    Библиотека кодирования : libebml v1.3.0 libmatroska v1.4.0

    Видео
    Идентификатор : 1
    Формат : AVC
    Формат/Информация : Advanced Video Codec
    Профиль формата : High@L4.1
    Параметр CABAC формата : Да
    Параметр ReFrames формата : 10 кадров
    Идентификатор кодека : V_MPEG4/ISO/AVC
    Продолжительность : 1 ч. 33 м.
    Битрейт : 3246 Кбит/сек
    Ширина : 1024 пикселя
    Высота : 434 пикселя
    Соотношение сторон : 2,35:1
    Частота кадров : 23,976 кадра/сек
    Цветовое пространство : YUV
    Субдискретизация насыщенности : 4:2:0
    Битовая глубина : 8 бит
    Тип развёртки : Прогрессивная
    Бит/(Пиксели*Кадры) : 0.305
    Размер потока : 2,06 Гбайт (69%)
    Заголовок : Rip by 0ptimus
    Библиотека кодирования : x264 core 130 r2273 b3065e6
    Настройки программы : cabac=1 / ref=10 / deblock=1:-3:-3 / analyse=0x3:0x113 / me=umh / subme=11 / psy=1 / psy_rd=1.00:0.20 / mixed_ref=1 / me_range=32 / chroma_me=1 / trellis=2 / 8x8dct=1 / cqm=0 / deadzone=21,11 / fast_pskip=0 / chroma_qp_offset=-3 / threads=3 / lookahead_threads=1 / sliced_threads=0 / nr=0 / decimate=0 / interlaced=0 / bluray_compat=0 / constrained_intra=0 / bframes=9 / b_pyramid=2 / b_adapt=2 / b_bias=0 / direct=3 / weightb=1 / open_gop=0 / weightp=2 / keyint=240 / keyint_min=23 / scenecut=40 / intra_refresh=0 / rc_lookahead=40 / rc=2pass / mbtree=0 / bitrate=3246 / ratetol=1.0 / qcomp=0.60 / qpmin=0 / qpmax=69 / qpstep=4 / cplxblur=20.0 / qblur=0.5 / vbv_maxrate=50000 / vbv_bufsize=50000 / nal_hrd=none / ip_ratio=1.40 / pb_ratio=1.30 / aq=1:1.00
    Язык : English

    Аудио #1
    Идентификатор : 2
    Формат : AC-3
    Формат/Информация : Audio Coding 3
    Расширение режима : CM (complete main)
    Идентификатор кодека : A_AC3
    Продолжительность : 1 ч. 33 м.
    Вид битрейта : Постоянный
    Битрейт : 192 Кбит/сек
    Каналы : 2 канала
    Расположение каналов : Front: L R
    Частота : 48,0 КГц
    Битовая глубина : 16 бит
    Метод сжатия : С потерями
    Размер потока : 128 Мбайт (4%)
    Заголовок : Дублированный Студия Хлопушка AC3 2.0 192 kbps
    Язык : Russian

    Аудио #2
    Идентификатор : 3
    Формат : AC-3
    Формат/Информация : Audio Coding 3
    Расширение режима : CM (complete main)
    Идентификатор кодека : A_AC3
    Продолжительность : 1 ч. 33 м.
    Вид битрейта : Постоянный
    Битрейт : 384 Кбит/сек
    Каналы : 6 каналов
    Расположение каналов : Front: L C R, Side: L R, LFE
    Частота : 48,0 КГц
    Битовая глубина : 16 бит
    Метод сжатия : С потерями
    Размер потока : 256 Мбайт (8%)
    Заголовок : Многоголосый закадровый Blu-Ray CEE/OPT AC3 5.1 384 kbps
    Язык : Russian

    Аудио #3
    Идентификатор : 4
    Формат : AC-3
    Формат/Информация : Audio Coding 3
    Расширение режима : CM (complete main)
    Идентификатор кодека : A_AC3
    Продолжительность : 1 ч. 33 м.
    Вид битрейта : Постоянный
    Битрейт : 384 Кбит/сек
    Каналы : 6 каналов
    Расположение каналов : Front: L C R, Side: L R, LFE
    Частота : 48,0 КГц
    Битовая глубина : 16 бит
    Метод сжатия : С потерями
    Размер потока : 256 Мбайт (8%)
    Заголовок : Авторский Андрей Гаврилов AC3 5.1 384 kbps
    Язык : Russian

    Аудио #4
    Идентификатор : 5
    Формат : AC-3
    Формат/Информация : Audio Coding 3
    Расширение режима : CM (complete main)
    Идентификатор кодека : A_AC3
    Продолжительность : 1 ч. 33 м.
    Вид битрейта : Постоянный
    Битрейт : 384 Кбит/сек
    Каналы : 6 каналов
    Расположение каналов : Front: L C R, Side: L R, LFE
    Частота : 48,0 КГц
    Битовая глубина : 16 бит
    Метод сжатия : С потерями
    Размер потока : 256 Мбайт (8%)
    Заголовок : AC3 5.1 384 kbps
    Язык : English

    Текст #1
    Идентификатор : 6
    Формат : UTF-8
    Идентификатор кодека : S_TEXT/UTF8
    Идентификатор кодека/Информация : UTF-8 Plain Text
    Язык : Russian

    Текст #2
    Идентификатор : 7
    Формат : UTF-8
    Идентификатор кодека : S_TEXT/UTF8
    Идентификатор кодека/Информация : UTF-8 Plain Text
    Язык : Ukrainian

    Текст #3
    Идентификатор : 8
    Формат : UTF-8
    Идентификатор кодека : S_TEXT/UTF8
    Идентификатор кодека/Информация : UTF-8 Plain Text
    Язык : English

    Меню
    00:00:00.000 : en:Death Drugs (Main Titles)
    00:07:52.221 : en:I;ve Had Enough
    00:10:12.028 : en:Uncle John
    00:14:02.633 : en:Old Friends
    00:16:43.252 : en:Screwface
    00:20:19.551 : en:The Curse
    00:23:05.258 : en:Blood in the Bar
    00:30:57.063 : en:The Posse;s Power
    00:36:13.504 : en:Death Drives By
    00:39:26.363 : en:Looking for Screwface
    00:43:00.619 : en:Marked for Death
    00:46:50.933 : en:A Message From Screwface
    00:50:28.483 : en:Serious Fun
    00:59:01.829 : en:The Big Squeeze
    01:01:54.877 : en:Ready for War
    01:06:10.383 : en:Jamaica
    01:11:38.544 : en:An Army of Three
    01:18:01.093 : en:The Posse;s Prisoner
    01:20:56.685 : en:Screwface Is Dead
    01:26:02.490 : en:Dead Again
    01:29:10.762 : en:The Stronger Magic

    ---------------------------------------------------------------------
    x264 info: frame I:1002 Avg QP:16.13 size: 80844
    x264 info: frame P:30045 Avg QP:18.30 size: 30829
    x264 info: frame B:103192 Avg QP:19.98 size: 12257
    ---------------------------------------------------------------------
    Скриншоты для ознакомления




    Релиз подготовил:
    Размер скачиваемого торрента: 3.95 GB (4245797019 Bytes)

    Отмеченный смертью / Помеченный смертью / Нико-3 / Marked for Death (1990) BDRip-AVC от 0ptimus | D, P, P2, A, L1 торрент скачать бесплатно
    загрузка...
    Рейтинг →
     (голосов: 1, оценка 5/5, голосовать можно 1 раз )

    Другие торренты по теме:

  • Отмеченный смертью / Нико-3 / Marked for Death (1990) BDRip 1080p торрент скачать бесплатно
  • Отмеченный смертью / Marked for Death (1990) BDRip 720p | D, P, P2, A, L1 торрент скачать бесплатно


    • Комментарии (0):

      Информация

      Информация

        Посетители, находящиеся в группе Гости, не могут оставлять комментарии в данной новости.

        ↓ Меню



        ↓ Опрос

        А Вы добавили сайт в закладки?
        Да
        Не


        Top 10 за неделю (Фильмы)