.
Авторизация | Регистрация
Хочешь лучшие торренты? Добавь свой email!
Добавить
» » Битва у Красной скалы / Chibi (2008) BDRip-AVC | ATV | P,P1 скачать через торрент бесплатно




    Битва у Красной скалы / Chibi (2008) BDRip-AVC | ATV | P,P1 скачать через торрент бесплатно

    Опубликовал: Админ | Дата: 27-02-2015, 11:10 | Просмотров: 219



    Битва у Красной скалы / Chibi (2008) BDRip-AVC 720p | ATV | P,P1

    Русское название: Битва у Красной скалы
    Русское название в мировом прокате: Chibi
    Создали в: 2008
    Категория жанра: боевик, драма, приключения, военный, история
    Главный режиссер: Джон Ву
    Актеры: Тони Люн Чу Вай, Такеши Канеширо, Чжан Фэни, Чан Чэнь, Чжао Вэй, Ху Цзюнь, Линь Чилин, Шидо Накамура, Юн Ю, Ба Сэнь Чжа Бу

    Сюжет фильма:
    Древний Китай, 208 год нашей эры. Хитроумный премьер-министр, а фактически правитель империи, Цао Цао убеждает нерешительного императора начать войну с двумя независимыми царствами, под предлогом объединения Китая. Милионная армия легко разбивает немногочисленные отряды царства Шу и запирает остатки войска в цитадели у Красной Скалы, не оставив им другого выбора, как обратиться за подмогой к правителю царства Восточный У, послав туда военного советника Чжуге Ляна.
    Ему удается убедить правителя царства послать армию, возглавляемую вице-правителем Чжоу Юем, на помощь осажденным. И теперь неясно, сможет ли грубая сила одолеть мужество и хитрость...




    Снималось в: Китай
    Киностудия: Beijing Film Studio, China Film Group, Lion Rock Productions
    Время просмотра: 02:25:18
    Перевод текста: Русский профессиональный многоголосый закадровый, профессиональный одноголосый закадровый


    Файл
    Кодек для видео: H.264
    Качество фильма: BDRip-AVC 720p | ATV
    Информация о видео: 1280x720 (16:9) at 24.000 fps, AVC at 5012 kbps
    Информация о звуке:
    1: ААС 2.0 180 kbps - Русский профессиональный многоголосый закадровый
    2: АС3 5.1 448 kbps - Русский профессиональный многоголосый закадровый
    3: АС3 5.1 448 kbps - Русский профессиональный одноголосый закадровый (Сербин)
    4: АС3 5.1 384 kbps - Китайский

    Субтитры: Отсутствуют

    MI

    General
    Complete name : C:CREATE480outChibi.I.2008 (HD).m4v
    Format : MPEG-4
    Codec ID : M4V
    File size : 6.58 GiB
    Duration : 2h 25mn
    Overall bit rate mode : Variable
    Overall bit rate : 6 482 Kbps
    Movie name : Битва у Красной скалы
    Performer : John Woo
    Genre : Action Adventure
    Recorded date : UTC 2008-06-30 08:00:00
    Encoded date : UTC 2014-02-24 12:09:46
    Tagged date : UTC 2014-02-24 12:36:13
    Copyright : Beijing Film Studio, China Film Group, Lion Rock Productions
    Cover : Yes
    Comment : Древний Китай. Миллионная армия. Знаменитая битва
    sonm : Chibi
    desc : Древний Китай, 208 год нашей эры. Хитроумный премьер-министр, а фактически правитель империи, Цао Цао убеждает нерешительного императора начать войну с двумя независимыми царствами, под предлогом объединения Китая.
    ldes : Древний Китай, 208 год нашей эры. Хитроумный премьер-министр, а фактически правитель империи, Цао Цао убеждает нерешительного императора начать войну с двумя независимыми царствами, под предлогом объединения Китая.Милионная армия легко разбивает немногочисленные отряды царства Шу и запирает остатки войска в цитадели у Красной Скалы, не оставив им другого выбора, как обратиться за подмогой к правителю царства Восточный У, послав туда военного советника Чжуге Ляна. Ему удается убедить правителя царства послать армию, возглавляемую вице-правителем Чжоу Юем, на помощь осажденным. И теперь неясно, сможет ли грубая сила одолеть мужество и хитрость…
    hdvd : 1
    stik : 9
    rtng : 0
    cnID : 358997614
    xid : Apple:vendor_id:2008-88123
    iTunEXTC : mpaa|R|400|


    Video #1
    ID : 1
    Format : AVC
    Format/Info : Advanced Video Codec
    Format profile : High@L4.1
    Format settings, CABAC : Yes
    Format settings, ReFrames : 8 frames
    Codec ID : avc1
    Codec ID/Info : Advanced Video Coding
    Duration : 2h 25mn
    Bit rate : 5 012 Kbps
    Maximum bit rate : 22.5 Mbps
    Width : 1 280 pixels
    Height : 720 pixels
    Display aspect ratio : 16:9
    Frame rate mode : Constant
    Frame rate : 24.000 fps
    Color space : YUV
    Chroma subsampling : 4:2:0
    Bit depth : 8 bits
    Scan type : Progressive
    Bits/(Pixel*Frame) : 0.227
    Stream size : 5.09 GiB (77%)
    Writing library : x264 core 140 r2377 40 929f149 tMod 8-bit@4:2:0 X86_64
    Encoding settings : cabac=1 / ref=9 / deblock=1:0:0 / analyse=0x3:0x113 / me=umh / subme=11 / psy=1 / fade_compensate=0.00 / psy_rd=1.00:0.05 / mixed_ref=1 / me_range=48 / chroma_me=1 / trellis=2 / 8x8dct=1 / cqm=0 / deadzone=21,11 / fast_pskip=0 / chroma_qp_offset=-3 / threads=12 / lookahead_threads=3 / sliced_threads=0 / nr=0 / decimate=0 / interlaced=0 / bluray_compat=0 / constrained_intra=0 / fgo=0 / bframes=12 / b_pyramid=1 / b_adapt=2 / b_bias=0 / direct=1 / weightb=1 / open_gop=0 / weightp=2 / keyint=250 / keyint_min=23 / scenecut=40 / intra_refresh=0 / rc_lookahead=180 / rc=crf / mbtree=1 / crf=19.0000 / qcomp=0.60 / qpmin=0:0:0 / qpmax=69:69:69 / qpstep=4 / vbv_maxrate=62500 / vbv_bufsize=50000 / crf_max=0.0 / nal_hrd=none / filler=0 / ip_ratio=1.30 / aq=4:0.90 / aq-sensitivity=10.00 / aq-factor=1.00:1.00:1.00 / aq2=0 / aq3=0
    Language : Chinese
    Encoded date : UTC 2014-02-24 12:09:46
    Tagged date : UTC 2014-02-24 12:12:24
    Matrix coefficients : BT.709

    Video #2
    ID : 7
    Format : JPEG
    Codec ID : jpeg
    Duration : 2h 25mn
    Bit rate mode : Variable
    Bit rate : 812 bps
    Width : 640 pixels
    Height : 360 pixels
    Display aspect ratio : 16:9
    Frame rate mode : Variable
    Frame rate : 0.002 fps
    Minimum frame rate : 0.001 fps
    Maximum frame rate : 0.006 fps
    Color space : YUV
    Chroma subsampling : 4:2:0
    Bit depth : 8 bits
    Compression mode : Lossy
    Bits/(Pixel*Frame) : 1.762
    Stream size : 743 KiB (0%)
    Language : Chinese
    Encoded date : UTC 2014-02-24 12:35:56
    Tagged date : UTC 2014-02-24 12:35:56

    Audio #1
    ID : 2
    Format : AAC
    Format/Info : Advanced Audio Codec
    Format profile : LC
    Codec ID : 40
    Duration : 2h 25mn
    Bit rate mode : Variable
    Bit rate : 182 Kbps
    Maximum bit rate : 227 Kbps
    Channel(s) : 2 channels
    Channel positions : Front: L R
    Sampling rate : 48.0 KHz
    Compression mode : Lossy
    Stream size : 189 MiB (3%)
    Title : AAC MVO
    Language : Russian
    Encoded date : UTC 2014-02-24 12:11:15
    Tagged date : UTC 2014-02-24 12:12:24

    Audio #2
    ID : 3
    Format : AC-3
    Format/Info : Audio Coding 3
    Mode extension : CM (complete main)
    Format settings, Endianness : Big
    Codec ID : ac-3
    Duration : 2h 25mn
    Bit rate mode : Constant
    Bit rate : 448 Kbps
    Channel(s) : 6 channels
    Channel positions : Front: L C R, Side: L R, LFE
    Sampling rate : 48.0 KHz
    Bit depth : 16 bits
    Compression mode : Lossy
    Stream size : 466 MiB (7%)
    Title : MVO
    Language : Russian
    Encoded date : UTC 2014-02-24 12:11:26
    Tagged date : UTC 2014-02-24 12:12:24

    Audio #3
    ID : 4
    Format : AC-3
    Format/Info : Audio Coding 3
    Mode extension : CM (complete main)
    Format settings, Endianness : Big
    Codec ID : ac-3
    Duration : 2h 25mn
    Bit rate mode : Constant
    Bit rate : 448 Kbps
    Channel(s) : 6 channels
    Channel positions : Front: L C R, Side: L R, LFE
    Sampling rate : 48.0 KHz
    Bit depth : 16 bits
    Compression mode : Lossy
    Stream size : 466 MiB (7%)
    Title : AVO
    Language : Russian
    Encoded date : UTC 2014-02-24 12:11:46
    Tagged date : UTC 2014-02-24 12:12:24

    Audio #4
    ID : 5
    Format : AC-3
    Format/Info : Audio Coding 3
    Mode extension : CM (complete main)
    Format settings, Endianness : Big
    Codec ID : ac-3
    Duration : 2h 25mn
    Bit rate mode : Constant
    Bit rate : 384 Kbps
    Channel(s) : 6 channels
    Channel positions : Front: L C R, Side: L R, LFE
    Sampling rate : 48.0 KHz
    Bit depth : 16 bits
    Compression mode : Lossy
    Stream size : 399 MiB (6%)
    Title : Original
    Language : Chinese
    Encoded date : UTC 2014-02-24 12:12:06
    Tagged date : UTC 2014-02-24 12:12:24

    Menu
    ID : 6
    Codec ID : text
    Duration : 2h 25mn
    Language : Chinese
    Encoded date : UTC 2014-02-24 12:16:18
    Tagged date : UTC 2014-02-24 12:16:18
    Bit rate mode : CBR


    iTunes Meta Tags

    Sort Name: Chibi
    XID: Apple:vendor_id:2008-88123
    contentID: 358997614
    Copyright: Beijing Film Studio, China Film Group, Lion Rock Productions
    Screenwriters: Джон Ву, Кхан Чан, Чэн Куо
    Producers: Тэжэньцэ Чан, Саньпин Хань, Джон Ву
    Director: Джон Ву
    Cast: Chang Chen (Sun Quan), Tony Leung Chiu-Wai (Zhou Yu), Takeshi Kaneshiro (Zhuge Liang), Chiling Lin (Xiao Qiao), Nakamura Shid? II (Gan Xing), Zhao Wei (Sun Shangxiang), Hu Jun (Zhao Yun), You Yong (Liu Bei), Yong Hou (Lu Su), Tong Dawei (Sun Shucai), Song Jia (Li Ji), Ba Sen Zha Bu (Guan Yu), Jinsheng Zang (Zhang Fei), Zhang Shan (Huang Gai), Fengyi Zhang (Cao Cao)
    Studio: Beijing Film Studio, China Film Group, Lion Rock Productions
    Rating: 5
    Long Deion: Древний Китай, 208 год нашей эры. Хитроумный премьер-министр, а фактически правитель империи, Цао Цао убеждает нерешительного императора начать войну с двумя независимыми царствами, под предлогом объединения Китая.Милионная армия легко разбивает немногочисленные отряды царства Шу и запирает остатки войска в цитадели у Красной Скалы, не оставив им другого выбора, как обратиться за подмогой к правителю царства Восточный У, послав туда военного советника Чжуге Ляна. Ему удается убедить правителя царства послать армию, возглавляемую вице-правителем Чжоу Юем, на помощь осажденным. И теперь неясно, сможет ли грубая сила одолеть мужество и хитрость…
    Deion: Древний Китай, 208 год нашей эры. Хитроумный премьер-министр, а фактически правитель империи, Цао Цао убеждает нерешительного императора начать войну с двумя независимыми царствами, под предлогом объединения Китая.
    Release Date: 2008-06-30T08:00:00Z
    Genre: Action Adventure
    Comments: Древний Китай. Миллионная армия. Знаменитая битва
    Artist: John Woo
    Name: Битва у Красной скалы

    x264

    x264 info: frame I:1629 Avg QP:17.47 size:135981
    x264 info: frame P:49106 Avg QP:21.04 size: 50202
    x264 info: frame B:158510 Avg QP:23.01 size: 17511
    x264 info: consecutive B-frames: 3.1% 4.3% 10.4% 23.2% 12.0% 36.0% 6.2% 0.5% 1.9% 0.3% 0.9% 0.7% 0.5%
    x264 info: mb I I16..4: 9.5% 72.6% 17.9%
    x264 info: mb P I16..4: 2.6% 19.8% 2.7% P16..4: 30.5% 31.5% 8.8% 0.0% 0.0% skip: 4.2%
    x264 info: mb B I16..4: 0.3% 3.3% 0.4% B16..8: 35.8% 16.8% 2.6% direct: 5.8% skip:35.0% L0:42.7% L1:45.9% BI:11.4%
    x264 info: 8x8 transform intra:79.5% inter:65.0%
    x264 info: coded y,uvDC,uvAC intra: 80.0% 78.0% 41.3% inter: 28.5% 27.6% 6.3%
    x264 info: i16 v,h,dc,p: 19% 19% 5% 58%
    x264 info: i8 v,h,dc,ddl,ddr,vr,hd,vl,hu: 7% 6% 6% 11% 15% 14% 15% 12% 14%
    x264 info: i4 v,h,dc,ddl,ddr,vr,hd,vl,hu: 10% 7% 5% 8% 16% 15% 15% 11% 13%
    x264 info: i8c dc,h,v,p: 33% 26% 20% 21%
    x264 info: Weighted P-Frames: Y:6.5% UV:3.6%
    x264 info: ref P L0: 58.0% 13.1% 13.6% 5.4% 3.6% 2.6% 1.9% 1.5% 0.4% 0.0%
    x264 info: ref B L0: 84.2% 7.5% 4.0% 1.5% 1.4% 1.0% 0.4%
    x264 info: ref B L1: 94.2% 5.8%
    x264 info: kb/s:5012.21




    Залил: gekka
    Размер скачиваемого торрента: 6.58 GB (7064156661 Bytes)

    Битва у Красной скалы / Chibi (2008) BDRip-AVC | ATV | P,P1 скачать через торрент бесплатно
    загрузка...
    Рейтинг →
     (голосов: 1, оценка 5/5, голосовать можно 1 раз )

    Другие торренты по теме:

  • Битва у Красной скалы 2 / Red Cliff II / Chi bi xia: Jue zhan tian xia (2009) HDRip от Scarabey | P
  • Битва у Красной скалы I / Red Cliff I / Chi bi (2008) BDRip от HQ-ViDEO
  • Зулусы / Битва у Роркс-Дрифт / Zulu / The Battle of Rorkes Drift (1964) BDRip от Rulya74 | P
  • Битва у Красной скалы 2 / Chi bi xia: Jue zhan tian xia (2009) BDRip-AVC от MediaClub скачать через торрент бесплатно
  • Битва у Красной скалы 2 / Chi bi xia: Jue zhan tian xia (2009) BDRip 720p от MediaClub скачать через торрент бесплатно
  • Битва у Красной скалы 2 / Chibi xia: Jue zhan tian xia (2009) BDRip-AVC | iPhone | P,P1
  • Битва у Красной скалы 2 / Chibi xia: Jue zhan tian xia (2009) BDRip-AVC | ATV | P,P1
  • Битва у Красной скалы / Chibi (2008) BDRip-AVC | iPhone | P,P1


    • Комментарии (0):

      Информация

      Информация

        Посетители, находящиеся в группе Гости, не могут оставлять комментарии в данной новости.

        ↓ Меню



        ↓ Опрос

        А Вы добавили сайт в закладки?
        Да
        Не


        Top 10 за месяц (Фильмы)