.
Авторизация | Регистрация
Хочешь лучшие торренты? Добавь свой email!
Добавить
» » Колония / The Colony (2013) BDRip-AVC | ATV | D торрент скачать бесплатно




    Колония / The Colony (2013) BDRip-AVC | ATV | D торрент скачать бесплатно

    Опубликовал: Админ | Дата: 27-02-2015, 11:10 | Просмотров: 294



    Колония / The Colony (2013) BDRip-AVC 720p | ATV | D

    Русское название: Колония
    Русское название в мировом прокате: The Colony
    Создали в: 2013
    Категория жанра: ужасы, фантастика, боевик
    Главный режиссер: Джефф Ренфро
    Актеры: Кевин Зегерс, Лоренс Фишбёрн, Шарлотта Салливан, Билл Пэкстон, Аттикус Дин Митчелл, Дрю Вигевер, Джулиан Ричингс, Джон Тенч, Майкл Мэндо, Романо Орцари

    Сюжет фильма:
    После природного катаклизма, под ледяной поверхностью, покрывшей Землю, оставшиеся в живых люди собрались в Колонию 7 и пытаются выжить несмотря на сокращающиеся запасы продовольствия. Они еще поддерживают связь с Колонией 5, но после того, как контакт с ними теряется, группа смельчаков отправляется в опасную экспедицию, чтобы выяснить, что произошло с их соседями. Преодолев тяжелейший путь герои сталкиваются с опасностью во много раз превосходящую природную угрозу холода...



    Снималось в: Канада
    Киностудия: Alcina Pictures, Item 7, Mad Samurai Productions
    Время просмотра: 01:34:26
    Перевод текста: Русский дублированный


    Файл
    Кодек для видео: H.264
    Качество фильма: BDRip-AVC 720p | ATV
    Информация о видео: 1280x544 (2.35:1) at 23.976 fps, AVC at 3071 kbps
    Информация о звуке:
    1: ААС 2.0 192 kbps - Русский дублированный
    2: АС3 5.1 384 kbps - Русский дублированный
    3: ААС 2.0 192 kbps - Английский
    4: АС3 5.1 384 kbps - Английский
    Субтитры: Английские

    MI

    General
    Complete name : C:CREATE480outThe Colony.2013 (HD).m4v
    Format : MPEG-4
    Codec ID : M4V
    File size : 2.79 GiB
    Duration : 1h 34mn
    Overall bit rate mode : Variable
    Overall bit rate : 4 235 Kbps
    Movie name : Колония
    Performer : Джефф Ренфро
    Genre : Sci-Fi Fantasy
    Recorded date : UTC 2013-09-20 07:00:00
    Encoded date : UTC 2014-02-25 19:46:43
    Tagged date : UTC 2014-02-25 20:03:02
    Copyright : Alcina Pictures, Item 7, Mad Samurai Productions
    Cover : Yes
    Comment : Они выжили после апокалипсиса. Но не только они
    sonm : The Colony
    desc : После природного катаклизма, под ледяной поверхностью, покрывшей Землю, оставшиеся в живых люди собрались в Колонию 7 и пытаются выжить несмотря на сокращающиеся запасы продовольствия.
    ldes : После природного катаклизма, под ледяной поверхностью, покрывшей Землю, оставшиеся в живых люди собрались в Колонию 7 и пытаются выжить несмотря на сокращающиеся запасы продовольствия. Они еще поддерживают связь с Колонией 5, но после того, как контакт с ними теряется, группа смельчаков отправляется в опасную экспедицию, чтобы выяснить, что произошло с их соседями. Преодолев тяжелейший путь герои сталкиваются с опасностью во много раз превосходящую природную угрозу холода…
    hdvd : 1
    stik : 9
    rtng : 0
    cnID : 665545791
    xid : Apple:vendor_id:2013-420938
    iTunEXTC : mpaa|Unrated|600|

    Video #1
    ID : 1
    Format : AVC
    Format/Info : Advanced Video Codec
    Format profile : High@L4.1
    Format settings, CABAC : Yes
    Format settings, ReFrames : 8 frames
    Codec ID : avc1
    Codec ID/Info : Advanced Video Coding
    Duration : 1h 34mn
    Bit rate : 3 071 Kbps
    Maximum bit rate : 14.8 Mbps
    Width : 1 280 pixels
    Height : 544 pixels
    Display aspect ratio : 2.35:1
    Frame rate mode : Constant
    Frame rate : 23.976 fps
    Color space : YUV
    Chroma subsampling : 4:2:0
    Bit depth : 8 bits
    Scan type : Progressive
    Bits/(Pixel*Frame) : 0.184
    Stream size : 2.03 GiB (73%)
    Writing library : x264 core 140 r2377 40 929f149 tMod 8-bit@4:2:0 X86_64
    Encoding settings : cabac=1 / ref=9 / deblock=1:-3:-3 / analyse=0x3:0x133 / me=umh / subme=11 / psy=1 / fade_compensate=0.90 / psy_rd=1.05:0.10 / mixed_ref=1 / me_range=32 / chroma_me=1 / trellis=2 / 8x8dct=1 / cqm=0 / deadzone=21,11 / fast_pskip=0 / chroma_qp_offset=-3 / threads=12 / lookahead_threads=3 / sliced_threads=0 / nr=0 / decimate=0 / interlaced=0 / bluray_compat=0 / constrained_intra=0 / fgo=0 / bframes=12 / b_pyramid=1 / b_adapt=2 / b_bias=0 / direct=1 / weightb=1 / open_gop=0 / weightp=2 / keyint=250 / keyint_min=23 / scenecut=40 / intra_refresh=0 / rc_lookahead=180 / rc=crf / mbtree=1 / crf=18.0000 / qcomp=0.65 / qpmin=0:0:0 / qpmax=69:69:69 / qpstep=4 / vbv_maxrate=62500 / vbv_bufsize=50000 / crf_max=0.0 / nal_hrd=none / filler=0 / ip_ratio=1.35 / aq=4:0.90 / aq-sensitivity=10.00 / aq-factor=1.00:0.95:1.00 / aq2=0 / aq3=0 / zones=123400,135853,q=40
    Language : English
    Encoded date : UTC 2014-02-25 19:46:43
    Tagged date : UTC 2014-02-25 19:47:38
    Matrix coefficients : BT.709

    Video #2
    ID : 8
    Format : JPEG
    Codec ID : jpeg
    Duration : 1h 34mn
    Bit rate mode : Variable
    Bit rate : 762 bps
    Width : 640 pixels
    Height : 272 pixels
    Display aspect ratio : 2.35:1
    Frame rate mode : Variable
    Frame rate : 0.003 fps
    Minimum frame rate : 0.002 fps
    Maximum frame rate : 0.004 fps
    Color space : YUV
    Chroma subsampling : 4:2:0
    Bit depth : 8 bits
    Compression mode : Lossy
    Bits/(Pixel*Frame) : 1.459
    Stream size : 496 KiB (0%)
    Language : English
    Encoded date : UTC 2014-02-25 20:02:54
    Tagged date : UTC 2014-02-25 20:02:54

    Audio #1
    ID : 2
    Format : AAC
    Format/Info : Advanced Audio Codec
    Format profile : LC
    Codec ID : 40
    Duration : 1h 34mn
    Bit rate mode : Variable
    Bit rate : 192 Kbps
    Maximum bit rate : 220 Kbps
    Channel(s) : 2 channels
    Channel positions : Front: L R
    Sampling rate : 48.0 KHz
    Compression mode : Lossy
    Stream size : 130 MiB (5%)
    Title : AAC Dub
    Language : Russian
    Encoded date : UTC 2014-02-25 19:47:12
    Tagged date : UTC 2014-02-25 19:47:38

    Audio #2
    ID : 3
    Format : AC-3
    Format/Info : Audio Coding 3
    Mode extension : CM (complete main)
    Format settings, Endianness : Big
    Codec ID : ac-3
    Duration : 1h 34mn
    Bit rate mode : Constant
    Bit rate : 384 Kbps
    Channel(s) : 6 channels
    Channel positions : Front: L C R, Side: L R, LFE
    Sampling rate : 48.0 KHz
    Bit depth : 16 bits
    Compression mode : Lossy
    Stream size : 259 MiB (9%)
    Title : AC3 Dub
    Language : Russian
    Encoded date : UTC 2014-02-25 19:47:17
    Tagged date : UTC 2014-02-25 19:47:38

    Audio #3
    ID : 4
    Format : AAC
    Format/Info : Advanced Audio Codec
    Format profile : LC
    Codec ID : 40
    Duration : 1h 34mn
    Bit rate mode : Variable
    Bit rate : 192 Kbps
    Maximum bit rate : 225 Kbps
    Channel(s) : 2 channels
    Channel positions : Front: L R
    Sampling rate : 48.0 KHz
    Compression mode : Lossy
    Stream size : 130 MiB (5%)
    Title : AAC Original
    Language : English
    Encoded date : UTC 2014-02-25 19:47:25
    Tagged date : UTC 2014-02-25 19:47:38

    Audio #4
    ID : 5
    Format : AC-3
    Format/Info : Audio Coding 3
    Mode extension : CM (complete main)
    Format settings, Endianness : Big
    Codec ID : ac-3
    Duration : 1h 34mn
    Bit rate mode : Constant
    Bit rate : 384 Kbps
    Channel(s) : 6 channels
    Channel positions : Front: L C R, Side: L R, LFE
    Sampling rate : 48.0 KHz
    Bit depth : 16 bits
    Compression mode : Lossy
    Stream size : 259 MiB (9%)
    Title : AC3 Original
    Language : English
    Encoded date : UTC 2014-02-25 19:47:30
    Tagged date : UTC 2014-02-25 19:47:38

    Text
    ID : 6
    Format : Timed Text
    Muxing mode : sbtl
    Codec ID : tx3g
    Duration : 1h 25mn
    Bit rate mode : Variable
    Bit rate : 38 bps
    Stream size : 24.0 KiB (0%)
    Language : English
    Encoded date : UTC 2014-02-25 20:02:44
    Tagged date : UTC 2014-02-25 20:02:45

    Menu #1
    00:00:00.000 : 00:00:00.000
    00:05:53.728 : 00:05:53.728
    00:10:33.591 : 00:10:33.591
    00:16:26.986 : 00:16:26.986
    00:22:16.710 : 00:22:16.710
    00:29:13.001 : 00:29:13.001
    00:34:23.770 : 00:34:23.770
    00:41:45.461 : 00:41:45.461
    00:46:29.829 : 00:46:29.829
    00:51:49.940 : 00:51:49.940
    00:56:46.403 : 00:56:46.403
    01:04:19.856 : 01:04:19.856
    01:12:08.950 : 01:12:08.950
    01:16:49.480 : 01:16:49.480
    01:21:19.416 : 01:21:19.416
    01:25:46.391 : 01:25:46.391

    Menu #2
    ID : 7
    Codec ID : text
    Duration : 1h 34mn
    Language : English
    Encoded date : UTC 2014-02-25 20:02:45
    Tagged date : UTC 2014-02-25 20:02:45
    Bit rate mode : CBR

    iTunes Meta Tags

    Sort Name: The Colony
    XID: Apple:vendor_id:2013-420938
    contentID: 665545791
    Copyright: Alcina Pictures, Item 7, Mad Samurai Productions
    Screenwriters: Патрик Тарр, Паскаль Троттье, Джефф Ренфро
    Producers: Пол Баркин, Мэттью Керви, Пьер Ивен
    Director: Jeff Renfroe
    Cast: Кевин Зегерс, Лоренс Фишбёрн, Шарлотта Салливан, Билл Пэкстон, Аттикус Дин Митчелл, Дрю Вигевер, Джулиан Ричингс, Джон Тенч, Майкл Мэндо, Романо ОрцариLaurence Fishburne (Briggs), Kevin Zegers (Sam), Bill Paxton (Mason), John Tench (Viktor), Atticus Dean Mitchell (Graydon), Dru Viergever (Feral Leader), Romano Orzari (Reynolds), Earl Pastko (Scientist), Lisa Berry (Nara), Lucius Hoyos (Rowan), Michael Mando (Cooper), Eric Murdoch (Terrified Man), Kimberly-Sue Murray (Janelle), Julian Richings (Leland), Charlotte Sullivan (Kai)
    Studio: Alcina Pictures, Item 7, Mad Samurai Productions
    Rating: 0
    Long Deion: После природного катаклизма, под ледяной поверхностью, покрывшей Землю, оставшиеся в живых люди собрались в Колонию 7 и пытаются выжить несмотря на сокращающиеся запасы продовольствия. Они еще поддерживают связь с Колонией 5, но после того, как контакт с ними теряется, группа смельчаков отправляется в опасную экспедицию, чтобы выяснить, что произошло с их соседями. Преодолев тяжелейший путь герои сталкиваются с опасностью во много раз превосходящую природную угрозу холода…
    Deion: После природного катаклизма, под ледяной поверхностью, покрывшей Землю, оставшиеся в живых люди собрались в Колонию 7 и пытаются выжить несмотря на сокращающиеся запасы продовольствия.
    Release Date: 2013-09-20T07:00:00Z
    Genre: Sci-Fi Fantasy
    Comments: Они выжили после апокалипсиса. Но не только они
    Artist: Джефф Ренфро
    Name: Колония
    x264

    x264 info: frame I:973 Avg QP:16.12 size: 91860
    x264 info: frame P:30353 Avg QP:20.18 size: 29734
    x264 info: frame B:104527 Avg QP:21.50 size: 11318
    x264 info: consecutive B-frames: 2.3% 3.9% 9.6% 17.9% 15.0% 42.5% 4.1% 1.2% 1.7% 0.6% 0.5% 0.3% 0.6%
    x264 info: mb I I16..4: 9.5% 71.2% 19.3%
    x264 info: mb P I16..4: 1.0% 9.2% 0.9% P16..4: 29.9% 34.0% 9.7% 1.6% 0.2% skip:13.4%
    x264 info: mb B I16..4: 0.1% 1.5% 0.1% B16..8: 34.9% 18.9% 2.8% direct: 5.6% skip:36.2% L0:41.5% L1:46.4% BI:12.1%
    x264 info: 8x8 transform intra:83.2% inter:68.3%
    x264 info: coded y,uvDC,uvAC intra: 85.3% 84.4% 66.5% inter: 24.7% 22.2% 9.1%
    x264 info: i16 v,h,dc,p: 17% 14% 4% 64%
    x264 info: i8 v,h,dc,ddl,ddr,vr,hd,vl,hu: 7% 7% 7% 10% 15% 13% 15% 11% 14%
    x264 info: i4 v,h,dc,ddl,ddr,vr,hd,vl,hu: 10% 8% 7% 9% 15% 13% 14% 11% 13%
    x264 info: i8c dc,h,v,p: 43% 21% 17% 18%
    x264 info: Weighted P-Frames: Y:11.0% UV:8.6%
    x264 info: ref P L0: 54.9% 10.8% 15.4% 6.5% 4.4% 3.2% 2.6% 1.7% 0.4% 0.0%
    x264 info: ref B L0: 83.0% 8.9% 3.9% 1.7% 1.2% 0.8% 0.5%
    x264 info: ref B L1: 93.1% 6.9%
    x264 info: kb/s:3070.80




    Залил: gekka
    Размер скачиваемого торрента: 2.79 GB (2999740324 Bytes)

    Колония / The Colony (2013) BDRip-AVC | ATV | D торрент скачать бесплатно
    загрузка...
    Рейтинг →
     (голосов: 1, оценка 5/5, голосовать можно 1 раз )

    Другие торренты по теме:

  • Колония / Double Team (1997) HDTVRip
  • Колония / The Colony (2013) DVDRip | L2
  • Колония / The Colony (2013) WEB-DL 720p | L2
  • Колония / The Colony (2013) WEB-DLRip-AVC | L2
  • Колония / The Colony (2013) WEB-DL 1080p | L2
  • Колония / The Colony (2013) WEB-DLRip-AVC от ExKinoRay | L2
  • Колония / The Colony (2013) WEB-DLRip от BitTracker | L2
  • Колония / The Colony (2013) WEB-DLRip-AVC от FireBit-Films NoLimits-Team | L2


    • Комментарии (0):

      Информация

      Информация

        Посетители, находящиеся в группе Гости, не могут оставлять комментарии в данной новости.

        ↓ Меню



        ↓ Опрос

        А Вы добавили сайт в закладки?
        Да
        Не


        Top 10 за месяц (Фильмы)