.
Авторизация | Регистрация
Хочешь лучшие торренты? Добавь свой email!
Добавить
» » Майкл Джексон: Призраки / Michael Jacksons Ghosts (1997) Blu-Ray Remux 1080p | A торрент скачать бесплатно




    Майкл Джексон: Призраки / Michael Jacksons Ghosts (1997) Blu-Ray Remux 1080p | A торрент скачать бесплатно

    Опубликовал: Админ | Дата: 27-02-2015, 11:10 | Просмотров: 433



    Детально о кино
    Русское название: Майкл Джексон: Призраки
    Русское название в мировом прокате: Michael Jackson;s Ghosts
    Создали в: 1997
    Категория жанра: короткометражка, ужасы, музыка
    Главный режиссер: Стэн Уинстон
    Актеры: Майкл Джексон, Пэт Даде, Эми Смоллмэн, Эдвина Мур, Мос Деф, Сет Смит, Кендалл Каннингэм, Лорен Рэндольф, Хезер Элерс, Майкл Балдерама, Трой Бёрджесс.

    Сюжет фильма:
    Небольшой городок обеспокоен: в старом Доме на Холме, пользующемся дурной славой дома с привидениями, поселился Очень Странный Человек, называющий себя Маэстро. Этот Маэстро слишком непохож на местных горожан, но его обожают дети, которых он любит развлекать магическими фокусами и всякими удивительными, жутковатыми чудесами.

    Мэр города и несколько разгневанных горожан сочли Маэстро опасным фриком, который дурно влияет на подрастающее поколение. Они решили принудить Маэстро к тому, чтобы он уехал прочь. Однажды они являются в Дом на Холме и ставят Маэстро ультиматум: либо он уедет из их города, либо его ждут большие неприятности.

    Шутник и озорник Маэстро воспринимает их угрозу как предложение сыграть в игру кто кого перепугает и начинает безумное шоу, в котором будет участвовать целая команда упырей и привидений, а самому мэру предстоит пережить демоническую одержимость — но все это лишь вполне беззлобная демонстрация возможностей Маэстро, который на самом деле и сам — всего лишь взрослый ребенок, больше всего на свете любящий игры и веселье…



    Снималось в: США
    Киностудия: Kingdom Pictures
    Время просмотра: 00:39:48
    Перевод текста: Авторский одноголосый, Оригинал

    Файл
    Кодек для видео: MPEG2
    Качество фильма: Blu-Ray Remux 1080p
    Информация о видео: 1920x1080 (16:9), 23.976 fps, MPEG Video, 35,1 Мбит/сек
    Информация о звуке:
    Информация о звуке #1: AC3, 192 Kbps, 48.0 KHz, 2 ch (Rus) Авторский одноголосый, Ю.Живов
    Информация о звуке #2: AC3, 448 Kbps, 48.0 KHz, 2 ch (Eng) Оригинал
    Субтитры: Русские, Английские

    Скриншоты для ознакомления


    MediaInfo
    Формат : Matroska
    Версия формата : Version 2
    Размер файла : 10,1 Гбайт
    Продолжительность : 39 м.
    Режим общего битрейта : Переменный
    Общий поток : 36,5 Мбит/сек
    Дата кодирования : UTC 2014-02-25 10:11:09
    Программа кодирования : mkvmerge v5.4.0 (;Piper;) built on Mar 10 2012 13:34:39
    Библиотека кодирования : libebml v1.2.3 libmatroska v1.3.0

    Видео
    Идентификатор : 1
    Формат : MPEG Video
    Версия формата : Version 2
    Профиль формата : Main@High
    Параметр BVOP формата : Нет
    Параметр матрицы формата : Выборочная
    Идентификатор кодека : V_MPEG2
    Идентификатор кодека/Информация : MPEG 1 or 2 Video
    Продолжительность : 39 м.
    Вид битрейта : Переменный
    Битрейт : 35,1 Мбит/сек
    Максимальный битрейт : 38,0 Мбит/сек
    Ширина : 1920 пикселей
    Высота : 1080 пикселей
    Соотношение сторон : 16:9
    Режим частоты кадров : Постоянный
    Частота кадров : 23,976 кадра/сек
    Стандарт вещания : Component
    Цветовое пространство : YUV
    Субдискретизация насыщенности : 4:2:0
    Битовая глубина : 8 бит
    Тип развёртки : Прогрессивная
    Метод сжатия : С потерями
    Бит/(Пиксели*Кадры) : 0.706
    Временной код первого кадра : 00:00:00:00
    Оригинал временного кода : Group of pictures t_head
    Размер потока : 9,76 Гбайт (96%)
    Закодированный размер потока оригинала : encoded by TMPGEnc Video Mastering Works 5 Version. 5.0.6.38
    Заголовок : Michael Jackson;s Ghosts / Майкл Джексон: Призраки (1997)
    Библиотека кодирования : TMPGEnc Video Mastering Works 5 Version. 5.0.6.38
    Язык : English
    Default : Да
    Forced : Нет
    Основные цвета : BT.709
    Характеристики трансфера : BT.709
    Коэффициенты матрицы : BT.709

    Аудио #1
    Идентификатор : 2
    Формат : AC-3
    Формат/Информация : Audio Coding 3
    Расширение режима : CM (complete main)
    Параметр Endianness формата : Big
    Идентификатор кодека : A_AC3
    Продолжительность : 39 м.
    Вид битрейта : Постоянный
    Битрейт : 192 Кбит/сек
    Каналы : 2 канала
    Расположение каналов : Front: L R
    Частота : 48,0 КГц
    Битовая глубина : 16 бит
    Метод сжатия : С потерями
    Задержка видео : 18 мс.
    Размер потока : 54,7 Мбайт (1%)
    Заголовок : AVO (Ю.Живов)
    Язык : Russian
    Default : Да
    Forced : Нет

    Аудио #2
    Идентификатор : 3
    Формат : AC-3
    Формат/Информация : Audio Coding 3
    Расширение режима : CM (complete main)
    Параметр Endianness формата : Big
    Идентификатор кодека : A_AC3
    Продолжительность : 39 м.
    Вид битрейта : Постоянный
    Битрейт : 448 Кбит/сек
    Каналы : 2 канала
    Расположение каналов : Front: L R
    Частота : 48,0 КГц
    Битовая глубина : 16 бит
    Метод сжатия : С потерями
    Размер потока : 128 Мбайт (1%)
    Заголовок : Original (English)
    Язык : English
    Default : Нет
    Forced : Нет

    Текст #1
    Идентификатор : 4
    Формат : UTF-8
    Идентификатор кодека : S_TEXT/UTF8
    Идентификатор кодека/Информация : UTF-8 Plain Text
    Заголовок : Rus
    Язык : Russian
    Default : Нет
    Forced : Нет

    Текст #2
    Идентификатор : 5
    Формат : UTF-8
    Идентификатор кодека : S_TEXT/UTF8
    Идентификатор кодека/Информация : UTF-8 Plain Text
    Заголовок : Eng
    Язык : English
    Default : Нет
    Forced : Нет



    Релиз подготовил: За релиз спасибо mclaus
    Залил: Soroka1989
    Размер скачиваемого торрента: 10.14 GB (10891444234 Bytes)

    Майкл Джексон: Призраки / Michael Jacksons Ghosts (1997) Blu-Ray Remux 1080p | A торрент скачать бесплатно
    загрузка...
    Рейтинг →
     (голосов: 1, оценка 5/5, голосовать можно 1 раз )

    Другие торренты по теме:

  • Майкл Джексон: Вот и всё / This Is It (2009) BDRip 1080p
  • Майкл Джексон: Лунная походка / Michael Jackson: Moonwalker (1988) BDRip-AVC от ExKinoRay | P
  • Майкл Джексон. Запретная любовь (2011) DVB


    • Комментарии (0):

      Информация

      Информация

        Посетители, находящиеся в группе Гости, не могут оставлять комментарии в данной новости.

        ↓ Меню



        ↓ Опрос

        А Вы добавили сайт в закладки?
        Да
        Не


        Top 10 за месяц (Фильмы)