.
Авторизация | Регистрация
Хочешь лучшие торренты? Добавь свой email!
Добавить
» » Долина прощаний / Sayonara keikoku / The Ravine of Goodbye (2013) HDRip торрент скачать бесплатно




    Долина прощаний / Sayonara keikoku / The Ravine of Goodbye (2013) HDRip торрент скачать бесплатно

    Опубликовал: Админ | Дата: 27-02-2015, 11:10 | Просмотров: 217


    Долина прощаний / Sayonara keikoku / The Ravine of Goodbye



    Снималось в: Япония
    Создали в: 2013
    Категория жанра: драма
    Время просмотра: 01:57:42
    Перевод текста: Профессиональный (двухголосый закадровый) студия Лексикон по заказу Камер-Тон-Медиа
    Оригинальная аудиодорожка: японский

    Главный режиссер: Тацуси Омори / Tatsushi Ohmori

    Актеры: Хирофуми Арай, Мансаку Икеучи, Арата Иура, Хана Кино, Хоука Киносита, Йоко Маки, Izumi Minai, Масаки Миура, Сима Ониси, Энн Сузуки

    Сюжет: В долине, в густой чаще леса, убивают ребенка. Его мать, Сатоми Татибана, арестована как главная подозреваемая. Полиция узнает, что у Сатоми роман с ее соседом Сюнсуке Одзаки. Этим делом начинает интересоваться корреспондент журнала — Ватанабе, он обнаруживает шокирующий факт…





    Качество фильма: HDRip
    Кидео: AVI
    Кодек для видео: XviD
    Информация о видео: MPEG4, XviD, 720x384 (1.875), 23.976 fps, 2 005 Kbps (0.303 bit/pixel)
    Информация о звуке 1: AC-3, 48.0 KHz, 2 ch, 192 Kbps, CBR - русский
    Информация о звуке 2: AC-3, 48.0 KHz, 6 ch, 448 Kbps, CBR - японский

    MediaInfo


    Общее
    Полное имя : K:Долина прощаний.avi
    Формат : AVI
    Формат/Информация : Audio Video Interleave
    Профиль формата : OpenDML
    Размер файла : 2,19 Гбайт
    Продолжительность : 1 ч. 57 м.
    Общий поток : 2663 Кбит/сек
    Название фильма : Долина прощаний / Sayonara keikoku / The Ravine of Goodbye (2013)
    Режиссёр : miha2154
    Программа кодирования : VirtualDubMod 1.5.10.2 (build 2540/release)
    Библиотека кодирования : VirtualDubMod build 2540/release

    Видео
    Идентификатор : 0
    Формат : MPEG-4 Visual
    Профиль формата : Advanced Simple@L5
    Параметр BVOP формата : 2
    Параметр QPel формата : Нет
    Параметр GMC формата : Без точки перехода
    Параметр матрицы формата : Default (MPEG)
    Идентификатор кодека : XVID
    Идентификатор кодека/Подсказка : XviD
    Продолжительность : 1 ч. 57 м.
    Битрейт : 2005 Кбит/сек
    Ширина : 720 пикселей
    Высота : 384 пикселя
    Соотношение сторон : 1,85:1
    Частота кадров : 23,976 кадра/сек
    Цветовое пространство : YUV
    Субдискретизация насыщенности : 4:2:0
    Битовая глубина : 8 бит
    Тип развёртки : Прогрессивная
    Метод сжатия : С потерями
    Бит/(Пиксели*Кадры) : 0.303
    Размер потока : 1,65 Гбайт (75%)
    Библиотека кодирования : XviD 1.1.0 (UTC 2005-11-22)

    Аудио #1
    Идентификатор : 1
    Формат : AC-3
    Формат/Информация : Audio Coding 3
    Расширение режима : CM (complete main)
    Параметр Endianness формата : Big
    Идентификатор кодека : 2000
    Продолжительность : 1 ч. 57 м.
    Вид битрейта : Постоянный
    Битрейт : 192 Кбит/сек
    Каналы : 2 канала
    Расположение каналов : Front: L R
    Частота : 48,0 КГц
    Битовая глубина : 16 бит
    Метод сжатия : С потерями
    Размер потока : 162 Мбайт (7%)
    Выравнивание : Разделение по промежуткам
    Продолжительность промежутка : 42 мс. (1,00 видеокадр)
    Время предзагрузки промежутка : 500 мс.
    Заголовок : Профессиональный (многоголосый закадровый) Культура

    Аудио #2
    Идентификатор : 2
    Формат : AC-3
    Формат/Информация : Audio Coding 3
    Расширение режима : CM (complete main)
    Параметр Endianness формата : Big
    Идентификатор кодека : 2000
    Продолжительность : 1 ч. 57 м.
    Вид битрейта : Постоянный
    Битрейт : 448 Кбит/сек
    Каналы : 6 каналов
    Расположение каналов : Front: L C R, Side: L R, LFE
    Частота : 48,0 КГц
    Битовая глубина : 16 бит
    Метод сжатия : С потерями
    Размер потока : 377 Мбайт (17%)
    Выравнивание : Разделение по промежуткам
    Продолжительность промежутка : 42 мс. (1,00 видеокадр)
    Время предзагрузки промежутка : 500 мс.
    Заголовок : Японский


    Скриншоты для ознакомления





    Залил: ivangord
    Размер скачиваемого торрента: 2.19 GB (2350774272 Bytes)

    Долина прощаний / Sayonara keikoku / The Ravine of Goodbye (2013) HDRip торрент скачать бесплатно
    загрузка...
    Рейтинг →
     (голосов: 1, оценка 3/5, голосовать можно 1 раз )

    Другие торренты по теме:

  • Долина прощаний / Sayonara keikoku / The Ravine of Goodbye (2013) BDRip 720p от CINEMANIA | P
  • Долина прощаний / Sayonara keikoku / The Ravine of Goodbye (2013) HDRip-AVC от New-Team | P скачать через торрент бесплатно


    • Комментарии (0):

      Информация

      Информация

        Посетители, находящиеся в группе Гости, не могут оставлять комментарии в данной новости.

        ↓ Меню



        ↓ Опрос

        А Вы добавили сайт в закладки?
        Да
        Не


        Top 10 за месяц (Фильмы)