.
Авторизация | Регистрация
Хочешь лучшие торренты? Добавь свой email!
Добавить
» » Битва у Красной скалы 2 / Chibi xia: Jue zhan tian xia (2009) BDRip-AVC | iPhone | P,P1 торрент скачать бесплатно




    Битва у Красной скалы 2 / Chibi xia: Jue zhan tian xia (2009) BDRip-AVC | iPhone | P,P1 торрент скачать бесплатно

    Опубликовал: Админ | Дата: 27-02-2015, 11:10 | Просмотров: 272



    Битва у Красной скалы 2 / Chibi xia: Jue zhan tian xia (2009) BDRip-AVC 480p | iPhone | P,P1

    Русское название: Битва у Красной скалы 2
    Русское название в мировом прокате: Chibi xia: Jue zhan tian xia
    Создали в: 2009
    Категория жанра: боевик, драма, военный, история
    Главный режиссер: Джон Ву
    Актеры: Тони Люн Чу Вай, Такеши Канеширо, Чжан Фэнъи, Чжан Чжэнь, Чжао Вэй, Ху Цзюнь, Линь Чжилин, Шидо Накамура, Юн Ю, Ба Сэнь Чжа Бу

    Сюжет фильма:
    Фильм рассказывает о двух военачальниках Сунь Цюане и Лю Бэе, которые в 208 году, общими усилиями победили более сильную армию военачальника Цао Цао…



    Снималось в: Китай
    Киностудия: Beijing Film Studio, China Film Group, Lion Rock Productions
    Время просмотра: 02:21:18
    Перевод текста: Русский профессиональный многоголосый закадровый, профессиональный одноголосый закадровый

    Файл
    Кодек для видео: H.264
    Качество фильма: BDRip-AVC 480p | iPhone
    Информация о видео: 640x480@851x480 (16:9) at 24.000 fps, AVC at 1900 kbps
    Информация о звуке:
    1: ААС 2.0 192 kbps - Русский профессиональный многоголосый закадровый
    2: ААС 2.0 192 kbps - Русский профессиональный одноголосый закадровый (Сербин)
    3: ААС 2.0 192 kbps - Китайский
    Субтитры: Отсутствуют

    MI

    General
    Complete name : C:CREATE480outChibi.II.2009 (SD).m4v
    Format : MPEG-4
    Codec ID : M4V
    File size : 2.45 GiB
    Duration : 2h 21mn
    Overall bit rate mode : Variable
    Overall bit rate : 2 480 Kbps
    Movie name : Битва у Красной скалы 2
    Performer : Джон Ву
    Genre : Action Adventure
    Recorded date : UTC 2009-01-08 08:00:00
    Encoded date : UTC 2014-02-25 06:47:52
    Tagged date : UTC 2014-02-25 08:41:04
    Copyright : Beijing Film Studio, China Film Group, Lion Rock Productions
    Cover : Yes
    sonm : Chi bi xia: Jue zhan tian xia
    desc : Фильм рассказывает о двух военачальниках Сунь Цюане и Лю Бэе, которые в 208 году, общими усилиями победили более сильную армию военачальника Цао Цао…
    ldes : Фильм рассказывает о двух военачальниках Сунь Цюане и Лю Бэе, которые в 208 году, общими усилиями победили более сильную армию военачальника Цао Цао…
    stik : 9
    rtng : 0
    cnID : 432796
    xid : Apple:vendor_id:2009-432796
    iTunEXTC : mpaa|R|400|

    Video #1
    ID : 1
    Format : AVC
    Format/Info : Advanced Video Codec
    Format profile : Baseline@L3.0
    Format settings, CABAC : No
    Format settings, ReFrames : 2 frames
    Codec ID : avc1
    Codec ID/Info : Advanced Video Coding
    Duration : 2h 21mn
    Bit rate : 1 900 Kbps
    Maximum bit rate : 9 046 Kbps
    Width : 640 pixels
    Height : 480 pixels
    Display aspect ratio : 16:9
    Frame rate mode : Constant
    Frame rate : 24.000 fps
    Color space : YUV
    Chroma subsampling : 4:2:0
    Bit depth : 8 bits
    Scan type : Progressive
    Bits/(Pixel*Frame) : 0.258
    Stream size : 1.87 GiB (77%)
    Title : Chibi xia_ Jue zhan tian xia _2009_
    Writing library : x264 core 140 r2377 40 929f149 tMod 8-bit@4:2:0 X86_64
    Encoding settings : cabac=0 / ref=2 / deblock=1:-2:-2 / analyse=0x1:0x131 / me=umh / subme=7 / psy=1 / fade_compensate=1.00 / psy_rd=1.00:0.05 / mixed_ref=1 / me_range=64 / chroma_me=1 / trellis=2 / 8x8dct=0 / cqm=0 / deadzone=21,11 / fast_pskip=0 / chroma_qp_offset=-3 / threads=12 / lookahead_threads=2 / sliced_threads=0 / nr=0 / decimate=0 / interlaced=0 / bluray_compat=0 / constrained_intra=0 / fgo=0 / bframes=0 / weightp=0 / keyint=250 / keyint_min=24 / scenecut=40 / intra_refresh=0 / rc_lookahead=120 / rc=2pass / mbtree=1 / bitrate=1900 / ratetol=1.0 / qcomp=0.60 / qpmin=0:0:0 / qpmax=69:69:69 / qpstep=4 / cplxblur=20.0 / qblur=0.5 / vbv_maxrate=5000 / vbv_bufsize=5000 / nal_hrd=none / filler=0 / ip_ratio=1.30 / aq=4:0.90 / aq-sensitivity=10.00 / aq-factor=1.00:1.00:1.00 / aq2=0 / aq3=0
    Language : Chinese
    Encoded date : UTC 2014-02-25 06:47:52
    Tagged date : UTC 2014-02-25 06:48:57
    Matrix coefficients : BT.709

    Video #2
    ID : 6
    Format : JPEG
    Codec ID : jpeg
    Duration : 2h 21mn
    Bit rate mode : Variable
    Bit rate : 840 bps
    Width : 640 pixels
    Height : 360 pixels
    Display aspect ratio : 16:9
    Frame rate mode : Variable
    Frame rate : 0.002 fps
    Minimum frame rate : 0.001 fps
    Maximum frame rate : 0.006 fps
    Color space : YUV
    Chroma subsampling : 4:2:0
    Bit depth : 8 bits
    Compression mode : Lossy
    Bits/(Pixel*Frame) : 1.823
    Stream size : 769 KiB (0%)
    Language : Chinese
    Encoded date : UTC 2014-02-25 08:33:16
    Tagged date : UTC 2014-02-25 08:33:17

    Audio #1
    ID : 2
    Format : AAC
    Format/Info : Advanced Audio Codec
    Format profile : LC
    Codec ID : 40
    Duration : 2h 21mn
    Bit rate mode : Variable
    Bit rate : 192 Kbps
    Maximum bit rate : 230 Kbps
    Channel(s) : 2 channels
    Channel positions : Front: L R
    Sampling rate : 48.0 KHz
    Compression mode : Lossy
    Stream size : 192 MiB (8%)
    Title : MVO
    Language : Russian
    Encoded date : UTC 2014-02-25 06:48:35
    Tagged date : UTC 2014-02-25 06:48:57

    Audio #2
    ID : 3
    Format : AAC
    Format/Info : Advanced Audio Codec
    Format profile : LC
    Codec ID : 40
    Duration : 2h 21mn
    Bit rate mode : Variable
    Bit rate : 192 Kbps
    Maximum bit rate : 229 Kbps
    Channel(s) : 2 channels
    Channel positions : Front: L R
    Sampling rate : 48.0 KHz
    Compression mode : Lossy
    Stream size : 193 MiB (8%)
    Title : AVO
    Language : Russian
    Encoded date : UTC 2014-02-25 06:48:43
    Tagged date : UTC 2014-02-25 06:48:57

    Audio #3
    ID : 4
    Format : AAC
    Format/Info : Advanced Audio Codec
    Format profile : LC
    Codec ID : 40
    Duration : 2h 21mn
    Bit rate mode : Variable
    Bit rate : 192 Kbps
    Maximum bit rate : 224 Kbps
    Channel(s) : 2 channels
    Channel positions : Front: L R
    Sampling rate : 48.0 KHz
    Compression mode : Lossy
    Stream size : 197 MiB (8%)
    Title : Original
    Language : Chinese
    Encoded date : UTC 2014-02-25 06:48:50
    Tagged date : UTC 2014-02-25 06:48:57

    Menu
    ID : 5
    Codec ID : text
    Duration : 2h 21mn
    Language : Chinese
    Encoded date : UTC 2014-02-25 06:50:52
    Tagged date : UTC 2014-02-25 06:50:52
    Bit rate mode : CBR


    iTunes Meta Tags

    Sort Name: Chi bi xia: Jue zhan tian xia
    XID: Apple:vendor_id:2009-432796
    Content ID: 432796
    Copyright: Beijing Film Studio, China Film Group, Lion Rock Productions
    ScreenWriters: Джон Ву, Кхан Чан, Чэн Куо
    Producers: Тэжэньцэ Чан, Саньпин Хань, Джон Ву
    Director: John Woo
    Cast: Tony Leung Chiu-Wai (Zhou Yu), Takeshi Kaneshiro (Zhuge Liang), Fengyi Zhang (Cao Cao), Zhao Wei (Sun Shangxiang), Chang Chen (Sun Quan), Song Jia (Li Ji), Hu Jun (General Zhao Yun), Tong Dawei (Private Sun Shucai)
    Rating: R
    Long Deion: Фильм рассказывает о двух военачальниках Сунь Цюане и Лю Бэе, которые в 208 году, общими усилиями победили более сильную армию военачальника Цао Цао…
    Deion: Фильм рассказывает о двух военачальниках Сунь Цюане и Лю Бэе, которые в 208 году, общими усилиями победили более сильную армию военачальника Цао Цао…
    Release Date: 2009-01-08T08:00:00Z
    Genre: Action Adventure
    Artist: Джон Ву
    Name: Битва у Красной скалы 2




    Залил: gekka
    Размер скачиваемого торрента: 2.45 GB (2628540521 Bytes)

    Битва у Красной скалы 2 / Chibi xia: Jue zhan tian xia (2009) BDRip-AVC | iPhone | P,P1 торрент скачать бесплатно
    загрузка...
    Рейтинг →
     (голосов: 1, оценка 4/5, голосовать можно 1 раз )

    Другие торренты по теме:

  • Битва у Красной скалы 2 / Red Cliff II / Chi bi xia: Jue zhan tian xia (2009) HDRip от Scarabey | P
  • Битва у Красной скалы I / Red Cliff I / Chi bi (2008) BDRip от HQ-ViDEO
  • Зулусы / Битва у Роркс-Дрифт / Zulu / The Battle of Rorkes Drift (1964) BDRip от Rulya74 | P
  • Битва у Красной скалы 2 / Chi bi xia: Jue zhan tian xia (2009) BDRip-AVC от MediaClub скачать через торрент бесплатно
  • Битва у Красной скалы 2 / Chi bi xia: Jue zhan tian xia (2009) BDRip 720p от MediaClub скачать через торрент бесплатно
  • Битва у Красной скалы / Chibi (2008) BDRip-AVC | ATV | P,P1 скачать через торрент бесплатно
  • Битва у Красной скалы 2 / Chibi xia: Jue zhan tian xia (2009) BDRip-AVC | ATV | P,P1
  • Битва у Красной скалы / Chibi (2008) BDRip-AVC | iPhone | P,P1


    • Комментарии (0):

      Информация

      Информация

        Посетители, находящиеся в группе Гости, не могут оставлять комментарии в данной новости.

        ↓ Меню



        ↓ Опрос

        А Вы добавили сайт в закладки?
        Да
        Не


        Top 10 за месяц (Фильмы)