.
Авторизация | Регистрация




Гравитация / Gravity (2013) DVD5 торрент скачать бесплатно

Опубликовал: Админ | Дата: 27-02-2015, 11:10 | Просмотров: 467

Не отпускай



Создали в: 2013
Создали в: США, Великобритания / Heyday Films, Reality Media, Warner Bros. Pictures
Категория жанра: Фантастика, триллер, драма
Перевод текста: Дублированный
Субтитры: Вшитые отключаемые
Язык субтитров: Русский, английский

Главный режиссер: Альфонсо Куарон
Продюсеры: Альфонсо Куарон, Дэвид Хейман, Кристофер ДеФариа
Актеры: Сандра Буллок, Джордж Клуни, Эд Харрис, Орто Игнатиуссен, Фалдут Шарма, Эми Уоррен, Башер Саваж, Дженис Ахерн

Сюжет фильма: Доктор Райан Стоун, блестящий специалист в области медицинского инжиниринга, отправляется в свою первую космическую миссию под командованием ветерана астронавтики Мэтта Ковальски, для которого этот полет — последний перед отставкой. Но во время, казалось бы, рутинной работы за бортом случается катастрофа.

Шаттл уничтожен, а Стоун и Ковальски остаются совершенно одни; они находятся в связке друг с другом, и все, что они могут, — это двигаться по орбите в абсолютно черном пространстве без всякой связи с Землей и какой-либо надежды на спасение.

Дата мировой премьеры: 28 августа 2013
Дата российской премьеры: 3 октября 2013, Каро-Премьер
Дата выхода DVD/Blu-Ray релиза: 21 февраля 2014, CP Дистрибуция
Время просмотра: 01:27:14
Качество фильма видео: DVD5

Информация о видео: MPEG-2, 720x576@1024x576 (PAL 16:9), ~4549 Кбит/сек
Информация о звуке 1: AC3 5.1, 448 Кбит/сек Русский - дублированный
Информация о звуке 2: AC3 5.1, 448 Кбит/сек Английский - оригинал

Бонусы:
1. Продакшн - 00:35:18
2. Анингаак - 00:06:36
DVDInfo:
Title:
Size: 4.35 Gb ( 4 558 172 KBytes ) - DVD-5
Enabled regions: 1, 2, 3, 4, 5, 6, 7, 8

VTS_01 :
Play Length: 01:27:14
Video: PAL 16:9 (720x576) VBR, Auto PanScan
Audio:
Russian (Dolby AC3, 6 ch)
English (Dolby AC3, 6 ch)
Subtitles:
Russian
English
Russian

VTS_02 :
Play Length: 00:00:04 00:35:18 00:06:36
Video: PAL 16:9 (720x576) VBR, Auto PanScan
Audio:
English (Dolby AC3, 2 ch)
Subtitles:
Russian

Menu Video:
PAL 16:9 (720x576) VBR
Auto PanScan
Menu Audio:
English (Dolby AC3, 6 ch)
Menu Russian Language Unit :
Root Menu
Subpicture Menu
Audio Menu
Chapter (PTT) Menu
MediaInfo:
Общее
Полное имя : C:VIDEOGravity (2013) DVD5 BD - DVDVIDEO_TSVTS_01_2.VOB
Формат : MPEG-PS
Размер файла : 1024 Мбайт
Продолжительность : 25 м.
Режим общего битрейта : Переменный
Общий поток : 5556 Кбит/сек

Видео
Идентификатор : 224 (0xE0)
Формат : MPEG Video
Версия формата : Version 2
Профиль формата : Main@Main
Параметр BVOP формата : Да
Параметр матрицы формата : Выборочная
Параметр GOP формата : M=3, N=15
Продолжительность : 25 м.
Вид битрейта : Переменный
Битрейт : 4549 Кбит/сек
Максимальный битрейт : 8000 Кбит/сек
Ширина : 720 пикселей
Высота : 576 пикселей
Соотношение сторон : 16:9
Частота кадров : 25,000 кадров/сек
Стандарт вещания : PAL
Цветовое пространство : YUV
Субдискретизация насыщенности : 4:2:0
Битовая глубина : 8 бит
Тип развёртки : Прогрессивная
Метод сжатия : С потерями
Бит/(Пиксели*Кадры) : 0.439
Временной код первого кадра : 00:29:19:14
Оригинал временного кода : Group of pictures t_head
Размер потока : 838 Мбайт (82%)

Аудио #1
Идентификатор : 189 (0xBD)-128 (0x80)
Формат : AC-3
Формат/Информация : Audio Coding 3
Расширение режима : CM (complete main)
Параметр Endianness формата : Big
Режим смешивания : DVD-Video
Продолжительность : 25 м.
Вид битрейта : Постоянный
Битрейт : 448 Кбит/сек
Каналы : 6 каналов
Расположение каналов : Front: L C R, Side: L R, LFE
Частота : 48,0 КГц
Битовая глубина : 16 бит
Метод сжатия : С потерями
Задержка видео : -600 мс.
Размер потока : 82,6 Мбайт (8%)

Аудио #2
Идентификатор : 189 (0xBD)-129 (0x81)
Формат : AC-3
Формат/Информация : Audio Coding 3
Расширение режима : CM (complete main)
Параметр Endianness формата : Big
Режим смешивания : DVD-Video
Продолжительность : 25 м.
Вид битрейта : Постоянный
Битрейт : 448 Кбит/сек
Каналы : 6 каналов
Расположение каналов : Front: L C R, Side: L R, LFE
Частота : 48,0 КГц
Битовая глубина : 16 бит
Метод сжатия : С потерями
Задержка видео : -600 мс.
Размер потока : 82,6 Мбайт (8%)

Текст #1
Идентификатор : 189 (0xBD)-32 (0x20)
Формат : RLE
Формат/Информация : Run-length encoding
Режим смешивания : DVD-Video

Текст #2
Идентификатор : 189 (0xBD)-33 (0x21)
Формат : RLE
Формат/Информация : Run-length encoding
Режим смешивания : DVD-Video

Меню

Доп. информация:
Информация о видео диска не сжималось!
Исходник: Гравитация / Gravity (2013) DVD9
Удалены: Бонусы. Гравитация: Центр управления полетом, точка столкновения, анингаак просмотр с предисловием.
Меню: частично анимированное, недействующие кнопки затерты и закрыты.
Обработка: DVD ReMake Pro Работа с меню (Adobe PhotoShop и MuxMan).
Скриншоты для ознакомления меню:
Скриншоты для ознакомления фильма:

Скриншоты для ознакомления дополнительных материалов:

Залил: Саша 1992
Размер скачиваемого торрента: 4.35 GB (4667568128 Bytes)

Гравитация / Gravity (2013) DVD5 торрент скачать бесплатно
загрузка...
Рейтинг →
 (голосов: 1, оценка 5/5, голосовать можно 1 раз )

Другие торренты по теме:

  • Гравитация / Притяжение / Gravity (2012) WEB-DLRip, HDTVRip | L2 торрент скачать бесплатно
  • OST - Гравитация / Gravity (2013) MP3 скачать через торрент бесплатно
  • Гравитация / Gravity (2013) CAMRip от INTERCINEMA скачать через торрент бесплатно
  • Гравитация / Gravity (2013) CAMRip *PROPER* от INTERCINEMA торрент скачать бесплатно
  • Гравитация / Gravity (2013) DVDScr | Звук с TS торрент скачать бесплатно
  • Гравитация / Gravity (2013) DVDScr | Чистый звук скачать через торрент бесплатно
  • Гравитация / Gravity (2013) WEBRip | Чистый звук скачать через торрент бесплатно
  • Гравитация / Gravity (2013) WEB-DLRip от New-Team | Чистый звук торрент скачать бесплатно


    • Комментарии (0):

      Информация

      Информация

        Посетители, находящиеся в группе Гости, не могут оставлять комментарии в данной новости.

        ↓ Меню



        ↓ Опрос

        А Вы добавили сайт в закладки?
        Да
        Не


        Top 10 за неделю (Фильмы)