.
Авторизация | Регистрация
» » Битва у Красной скалы / Chibi (2008) BDRip-AVC | iPhone | P,P1 торрент скачать бесплатно




    Битва у Красной скалы / Chibi (2008) BDRip-AVC | iPhone | P,P1 торрент скачать бесплатно

    Опубликовал: Админ | Дата: 27-02-2015, 11:10 | Просмотров: 219



    Битва у Красной скалы / Chibi (2008) BDRip-AVC 480p | iPhone | P,P1

    Русское название: Битва у Красной скалы
    Русское название в мировом прокате: Chibi
    Создали в: 2008
    Категория жанра: боевик, драма, приключения, военный, история
    Главный режиссер: Джон Ву
    Актеры: Тони Люн Чу Вай, Такеши Канеширо, Чжан Фэни, Чан Чэнь, Чжао Вэй, Ху Цзюнь, Линь Чилин, Шидо Накамура, Юн Ю, Ба Сэнь Чжа Бу

    Сюжет фильма:
    Древний Китай, 208 год нашей эры. Хитроумный премьер-министр, а фактически правитель империи, Цао Цао убеждает нерешительного императора начать войну с двумя независимыми царствами, под предлогом объединения Китая. Милионная армия легко разбивает немногочисленные отряды царства Шу и запирает остатки войска в цитадели у Красной Скалы, не оставив им другого выбора, как обратиться за подмогой к правителю царства Восточный У, послав туда военного советника Чжуге Ляна.
    Ему удается убедить правителя царства послать армию, возглавляемую вице-правителем Чжоу Юем, на помощь осажденным. И теперь неясно, сможет ли грубая сила одолеть мужество и хитрость...




    Снималось в: Китай
    Киностудия: Beijing Film Studio, China Film Group, Lion Rock Productions
    Время просмотра: 02:25:18
    Перевод текста: Русский профессиональный многоголосый закадровый, профессиональный одноголосый закадровый


    Файл
    Кодек для видео: H.264
    Качество фильма: BDRip-AVC 480p iPhone
    Информация о видео: 640x480@852x480 (16:9) at 24.000 fps, AVC at 1897 kbps
    Информация о звуке:
    1: ААС 2.0 180 kbps - Русский профессиональный многоголосый закадровый
    2: АAC 2.0 180 kbps - Русский профессиональный одноголосый закадровый (Сербин)
    3: АAC 2.0 180 kbps - Китайский

    Субтитры: Отсутствуют

    MI

    General
    Complete name : C:CREATE480outChibi.I.2008 (SD).m4v
    Format : MPEG-4
    Codec ID : M4V
    File size : 2.49 GiB
    Duration : 2h 25mn
    Overall bit rate mode : Variable
    Overall bit rate : 2 454 Kbps
    Movie name : Битва у Красной скалы
    Performer : John Woo
    Genre : Action Adventure
    Recorded date : UTC 2008-06-30 08:00:00
    Encoded date : UTC 2014-02-24 18:31:36
    Tagged date : UTC 2014-02-24 20:09:55
    Copyright : Beijing Film Studio, China Film Group, Lion Rock Productions
    Cover : Yes
    Comment : Древний Китай. Миллионная армия. Знаменитая битва
    sonm : Chibi
    desc : Древний Китай, 208 год нашей эры. Хитроумный премьер-министр, а фактически правитель империи, Цао Цао убеждает нерешительного императора начать войну с двумя независимыми царствами, под предлогом объединения Китая.
    ldes : Древний Китай, 208 год нашей эры. Хитроумный премьер-министр, а фактически правитель империи, Цао Цао убеждает нерешительного императора начать войну с двумя независимыми царствами, под предлогом объединения Китая.Милионная армия легко разбивает немногочисленные отряды царства Шу и запирает остатки войска в цитадели у Красной Скалы, не оставив им другого выбора, как обратиться за подмогой к правителю царства Восточный У, послав туда военного советника Чжуге Ляна. Ему удается убедить правителя царства послать армию, возглавляемую вице-правителем Чжоу Юем, на помощь осажденным. И теперь неясно, сможет ли грубая сила одолеть мужество и хитрость…
    stik : 9
    rtng : 0
    cnID : 358997614
    xid : Apple:vendor_id:2008-88123
    iTunEXTC : mpaa|R|400|


    Video #1
    ID : 1
    Format : AVC
    Format/Info : Advanced Video Codec
    Format profile : Baseline@L3.0
    Format settings, CABAC : No
    Format settings, ReFrames : 2 frames
    Codec ID : avc1
    Codec ID/Info : Advanced Video Coding
    Duration : 2h 25mn
    Bit rate : 1 900 Kbps
    Maximum bit rate : 8 221 Kbps
    Width : 640 pixels
    Height : 480 pixels
    Display aspect ratio : 16:9
    Frame rate mode : Constant
    Frame rate : 24.000 fps
    Color space : YUV
    Chroma subsampling : 4:2:0
    Bit depth : 8 bits
    Scan type : Progressive
    Bits/(Pixel*Frame) : 0.258
    Stream size : 1.93 GiB (77%)
    Title : Chibi _2008_
    Writing library : x264 core 140 r2377 40 929f149 tMod 8-bit@4:2:0 X86_64
    Encoding settings : cabac=0 / ref=2 / deblock=1:-2:-2 / analyse=0x1:0x131 / me=umh / subme=7 / psy=1 / fade_compensate=1.00 / psy_rd=1.00:0.05 / mixed_ref=1 / me_range=64 / chroma_me=1 / trellis=2 / 8x8dct=0 / cqm=0 / deadzone=21,11 / fast_pskip=0 / chroma_qp_offset=-3 / threads=12 / lookahead_threads=2 / sliced_threads=0 / nr=0 / decimate=0 / interlaced=0 / bluray_compat=0 / constrained_intra=0 / fgo=0 / bframes=0 / weightp=0 / keyint=250 / keyint_min=24 / scenecut=40 / intra_refresh=0 / rc_lookahead=120 / rc=2pass / mbtree=1 / bitrate=1900 / ratetol=1.0 / qcomp=0.60 / qpmin=0:0:0 / qpmax=69:69:69 / qpstep=4 / cplxblur=20.0 / qblur=0.5 / vbv_maxrate=5000 / vbv_bufsize=5000 / nal_hrd=none / filler=0 / ip_ratio=1.30 / aq=4:0.90 / aq-sensitivity=10.00 / aq-factor=1.00:1.00:1.00 / aq2=0 / aq3=0
    Language : Chinese
    Encoded date : UTC 2014-02-24 18:31:36
    Tagged date : UTC 2014-02-24 18:32:40
    Matrix coefficients : BT.709

    Video #2
    ID : 6
    Format : JPEG
    Codec ID : jpeg
    Duration : 2h 25mn
    Bit rate mode : Variable
    Bit rate : 803 bps
    Width : 640 pixels
    Height : 360 pixels
    Display aspect ratio : 16:9
    Frame rate mode : Variable
    Frame rate : 0.002 fps
    Minimum frame rate : 0.001 fps
    Maximum frame rate : 0.006 fps
    Color space : YUV
    Chroma subsampling : 4:2:0
    Bit depth : 8 bits
    Compression mode : Lossy
    Bits/(Pixel*Frame) : 1.743
    Stream size : 735 KiB (0%)
    Language : Chinese
    Encoded date : UTC 2014-02-24 20:09:46
    Tagged date : UTC 2014-02-24 20:09:46

    Audio #1
    ID : 2
    Format : AAC
    Format/Info : Advanced Audio Codec
    Format profile : LC
    Codec ID : 40
    Duration : 2h 25mn
    Bit rate mode : Variable
    Bit rate : 182 Kbps
    Maximum bit rate : 227 Kbps
    Channel(s) : 2 channels
    Channel positions : Front: L R
    Sampling rate : 48.0 KHz
    Compression mode : Lossy
    Stream size : 189 MiB (7%)
    Title : MVO
    Language : Russian
    Encoded date : UTC 2014-02-24 18:32:17
    Tagged date : UTC 2014-02-24 18:32:40

    Audio #2
    ID : 3
    Format : AAC
    Format/Info : Advanced Audio Codec
    Format profile : LC
    Codec ID : 40
    Duration : 2h 25mn
    Bit rate mode : Variable
    Bit rate : 182 Kbps
    Maximum bit rate : 226 Kbps
    Channel(s) : 2 channels
    Channel positions : Front: L R
    Sampling rate : 48.0 KHz
    Compression mode : Lossy
    Stream size : 189 MiB (7%)
    Title : AVO
    Language : Russian
    Encoded date : UTC 2014-02-24 18:32:26
    Tagged date : UTC 2014-02-24 18:32:40

    Audio #3
    ID : 4
    Format : AAC
    Format/Info : Advanced Audio Codec
    Format profile : LC
    Codec ID : 40
    Duration : 2h 25mn
    Bit rate mode : Variable
    Bit rate : 184 Kbps
    Maximum bit rate : 229 Kbps
    Channel(s) : 2 channels
    Channel positions : Front: L R
    Sampling rate : 48.0 KHz
    Compression mode : Lossy
    Stream size : 191 MiB (7%)
    Title : Original
    Language : Chinese
    Encoded date : UTC 2014-02-24 18:32:33
    Tagged date : UTC 2014-02-24 18:32:40

    Menu
    ID : 5
    Codec ID : text
    Duration : 2h 25mn
    Language : Chinese
    Encoded date : UTC 2014-02-24 18:34:16
    Tagged date : UTC 2014-02-24 18:34:16
    Bit rate mode : CBR

    iTunes Meta Tags

    Sort Name: Chibi
    XID: Apple:vendor_id:2008-88123
    contentID: 358997614
    Copyright: Beijing Film Studio, China Film Group, Lion Rock Productions
    Screenwriters: Джон Ву, Кхан Чан, Чэн Куо
    Producers: Тэжэньцэ Чан, Саньпин Хань, Джон Ву
    Director: Джон Ву
    Cast: Chang Chen (Sun Quan), Tony Leung Chiu-Wai (Zhou Yu), Takeshi Kaneshiro (Zhuge Liang), Chiling Lin (Xiao Qiao), Nakamura Shid? II (Gan Xing), Zhao Wei (Sun Shangxiang), Hu Jun (Zhao Yun), You Yong (Liu Bei), Yong Hou (Lu Su), Tong Dawei (Sun Shucai), Song Jia (Li Ji), Ba Sen Zha Bu (Guan Yu), Jinsheng Zang (Zhang Fei), Zhang Shan (Huang Gai), Fengyi Zhang (Cao Cao)
    Studio: Beijing Film Studio, China Film Group, Lion Rock Productions
    Rating: 5
    Long Deion: Древний Китай, 208 год нашей эры. Хитроумный премьер-министр, а фактически правитель империи, Цао Цао убеждает нерешительного императора начать войну с двумя независимыми царствами, под предлогом объединения Китая.Милионная армия легко разбивает немногочисленные отряды царства Шу и запирает остатки войска в цитадели у Красной Скалы, не оставив им другого выбора, как обратиться за подмогой к правителю царства Восточный У, послав туда военного советника Чжуге Ляна. Ему удается убедить правителя царства послать армию, возглавляемую вице-правителем Чжоу Юем, на помощь осажденным. И теперь неясно, сможет ли грубая сила одолеть мужество и хитрость…
    Deion: Древний Китай, 208 год нашей эры. Хитроумный премьер-министр, а фактически правитель империи, Цао Цао убеждает нерешительного императора начать войну с двумя независимыми царствами, под предлогом объединения Китая.
    Release Date: 2008-06-30T08:00:00Z
    Genre: Action Adventure
    Comments: Древний Китай. Миллионная армия. Знаменитая битва
    Artist: John Woo
    Name: Битва у Красной скалы

    x264

    x264 info: frame I:4173 Avg QP:21.41 size: 28429
    x264 info: frame P:205072 Avg QP:23.01 size: 9505
    x264 info: mb I I16..4: 33.4% 0.0% 66.6%
    x264 info: mb P I16..4: 2.4% 0.0% 3.6% P16..4: 53.1% 17.0% 8.4% 1.5% 0.6% skip:13.4%
    x264 info: coded y,uvDC,uvAC intra: 56.9% 75.0% 36.7% inter: 36.2% 42.4% 15.2%
    x264 info: i16 v,h,dc,p: 40% 15% 10% 34%
    x264 info: i4 v,h,dc,ddl,ddr,vr,hd,vl,hu: 25% 13% 15% 7% 9% 10% 7% 8% 5%
    x264 info: i8c dc,h,v,p: 55% 14% 23% 8%
    x264 info: ref P L0: 76.5% 23.5%
    x264 info: kb/s:1897.35




    Залил: gekka
    Размер скачиваемого торрента: 2.49 GB (2674759437 Bytes)

    Битва у Красной скалы / Chibi (2008) BDRip-AVC | iPhone | P,P1 торрент скачать бесплатно
    загрузка...
    Рейтинг →
     (голосов: 1, оценка 5/5, голосовать можно 1 раз )

    Другие торренты по теме:

  • Битва экстрасенсов (2012) SATRip торрент скачать бесплатно
  • Demigod. Битвы богов (2009) PC | RePack от R.G. Механики торрент скачать бесплатно
  • Битва за планету Терра / Battle for Terra (2007) BDRip 1080p торрент скачать бесплатно
  • Birth of America: Битва за независимость (2006) PC | Лицензия торрент скачать бесплатно
  • Сталинград. Битва миров. Фильм Леонида Млечина (2013) IPTVRip торрент скачать бесплатно
  • Сталинградская битва SATRip торрент скачать бесплатно
  • Инопланетное вторжение: Битва за Лос-Анджелес / Battle: Los Angeles (2011) HDRip-AVC торрент скачать бесплатно
  • Битва на ножах / Knife Fight (2012) WEB-DLRip | Unrated | P торрент скачать бесплатно


    • Комментарии (0):

      Информация

      Информация

        Посетители, находящиеся в группе Гости, не могут оставлять комментарии в данной новости.

        ↓ Меню



        ↓ Опрос

        А Вы добавили сайт в закладки?
        Да
        Не


        Top 10 за неделю (Фильмы)