.
Авторизация | Регистрация
» » Флеминг / Fleming (2013) WEB-DLRip-AVC | LostFilm торрент скачать бесплатно




    Флеминг / Fleming (2013) WEB-DLRip-AVC | LostFilm торрент скачать бесплатно

    Опубликовал: Админ | Дата: 27-02-2015, 11:10 | Просмотров: 238



    Детально о кино
    Русское название: Флеминг
    Русское название в мировом прокате: Fleming
    Создали в: 2013
    Категория жанра: драма, биография
    Главный режиссер: Мат Уайткросс / Mat Whitecross
    Актеры: Доминик Купер, Руперт Эванс, Лара Пулвер, Камилла Разерфорд, Пип Торренс, Анна Чэнселлор, Лесли Мэнвилл, Сэмюэл Уэст, Ли Асквит-Коу, Дин Леннокс Келли

    Сюжет фильма:
    Мини-сериал, состоящий из четырех эпизодов, расскажет захватывающую историю Яна Флеминга, чья собственная жизнь и авантюрные приключения вдохновили его на создание одного из самых культовых персонажей современной литературы – Джеймса Бонда.
    Как из прожигателя жизни превратиться в шпиона мирового уровня? Как использовать неуемную тягу к риску на благо страны и для повышения уровня адреналина в своей крови? Будущий всемирно известный писатель Иэн Флеминг — очаровательный и изысканный одиночка, искатель приключений и белая ворона. Все свое время он тратит на то, чтобы развлекаться. Красивые женщины, азартные игры, шикарные автомобили и катера — он ни в чем себе не отказывает и отрывается по полной программе. Но что-то Иэну не хватает... Да и родственники им не очень-то довольны. Действие шоу разворачивается в предвоенное время, и однажды Флемингу выпадает шанс проявить себя — его вербуют в разведку. И жизнь этого красивого и умного мужчины приобретает новый смысл. Иэн получает шанс доказать свою состоятельность, реализовать амбиции, стать героем. Сначала он рассматривает новую работу как очередное большое приключение, но очень скоро Флеминг понимает, где могут пригодиться его таланты ловеласа и позера. Оказывается, у него есть все задатки для того, чтобы стать... Идеальным шпионом. Так Иэн оказывается среди людей, творящих историю, в гуще событий, в центре самых опасных операций, в том числе, против нацистов. Зрителю предоставляется уникальная возможность заглянуть за кулисы разведки, узнать все тонкости и хитрости вербовки лучших людей для MI6, а также — что не менее интересно — познакомиться с внутренними демонами Флеминга. Человека, который стал прототипом Джеймса Бонда.



    Снималось в: Великобритания
    Киностудия: BBC America, Ecosse Films, Sky Atlantic
    Время просмотра: Серия ~00:45:00
    Перевод текста: Профессиональный (многоголосый, закадровый) LostFilm

    Файл
    Кодек для видео: h.264, AVC
    Качество фильма: WEB-DLRip-AVC
    Информация о видео: AVC, 1024 x 576, ~1806 kbps
    Информация о звуке #1: Русский: AC-3, 6 ch, 448 kbps
    Информация о звуке #2: Aнглийский: AC-3, 6 ch, 448 kbps
    Субтитры: Английские

    Скриншоты для ознакомления
    MI
    Общее
    Уникальный идентификатор : 168348648403719580577546155723716462494 (0x7EA6C532C2870C1E037BA147C20E879E)
    Полное имя : G:Флеминг Fleming S01 (2014) WEB-DLRip-AVCFleming.S01E01.720p.WEB-DLRip-AVC.mkv
    Формат : Matroska
    Версия формата : Version 2
    Размер файла : 878 Мбайт
    Продолжительность : 44 м.
    Режим общего битрейта : Переменный
    Общий поток : 2758 Кбит/сек
    Программа кодирования : Lavf51.12.1
    Библиотека кодирования : Lavf51.12.1

    Видео
    Идентификатор : 1
    Формат : AVC
    Формат/Информация : Advanced Video Codec
    Профиль формата : Baseline@L3.1
    Параметр CABAC формата : Нет
    Параметр ReFrames формата : 1 кадр
    Параметр GOP формата : M=1, N=12
    Идентификатор кодека : V_MPEG4/ISO/AVC
    Продолжительность : 44 м.
    Вид битрейта : Переменный
    Битрейт : 1807 Кбит/сек
    Максимальный битрейт : 2790 Кбит/сек
    Ширина : 1024 пикселя
    Высота : 576 пикселей
    Соотношение сторон : 16:9
    Режим частоты кадров : Постоянный
    Частота кадров : 24,000 кадра/сек
    Цветовое пространство : YUV
    Субдискретизация насыщенности : 4:2:0
    Битовая глубина : 8 бит
    Тип развёртки : Прогрессивная
    Бит/(Пиксели*Кадры) : 0.128
    Размер потока : 575 Мбайт (66%)
    Язык : English
    Default : Да
    Forced : Нет

    Аудио #1
    Идентификатор : 2
    Формат : AC-3
    Формат/Информация : Audio Coding 3
    Расширение режима : CM (complete main)
    Параметр Endianness формата : Big
    Идентификатор кодека : A_AC3
    Продолжительность : 44 м.
    Вид битрейта : Постоянный
    Битрейт : 448 Кбит/сек
    Каналы : 6 каналов
    Расположение каналов : Front: L C R, Side: L R, LFE
    Частота : 48,0 КГц
    Битовая глубина : 16 бит
    Метод сжатия : С потерями
    Размер потока : 143 Мбайт (16%)
    Язык : Russian
    Default : Да
    Forced : Нет

    Аудио #2
    Идентификатор : 4
    Формат : AC-3
    Формат/Информация : Audio Coding 3
    Расширение режима : CM (complete main)
    Параметр Endianness формата : Big
    Идентификатор кодека : A_AC3
    Продолжительность : 44 м.
    Вид битрейта : Постоянный
    Битрейт : 448 Кбит/сек
    Каналы : 6 каналов
    Расположение каналов : Front: L C R, Side: L R, LFE
    Частота : 48,0 КГц
    Битовая глубина : 16 бит
    Метод сжатия : С потерями
    Размер потока : 143 Мбайт (16%)
    Язык : English
    Default : Да
    Forced : Нет

    Текст
    Идентификатор : 3
    Формат : UTF-8
    Идентификатор кодека : S_TEXT/UTF8
    Идентификатор кодека/Информация : UTF-8 Plain Text
    Язык : English
    Default : Да
    Forced : Нет

    Размер скачиваемого торрента: 3.42 GB (3675391956 Bytes)

    Флеминг / Fleming (2013) WEB-DLRip-AVC | LostFilm торрент скачать бесплатно
    загрузка...
    Рейтинг →
     (голосов: 1, оценка 5/5, голосовать можно 1 раз )

    Другие торренты по теме:

  • Флеминг / Fleming (2014) WEB-DLRip | LostFilm торрент скачать бесплатно
  • Флеминг / Fleming (2014) WEB-DLRip 720p от MediaClub | LostFilm скачать через торрент бесплатно
  • Флеминг / Fleming (2014) WEB-DLRip 1080p от MediaClub | LostFilm скачать через торрент бесплатно
  • Флеминг / Fleming (2014) WEB-DLRip 1080p | LostFilm торрент скачать бесплатно
  • Флеминг / Fleming (2014) WEB-DLRip-AVC | LostFilm торрент скачать бесплатно
  • Флеминг / Fleming (2014) WEB-DLRip от Scarabey | LostFilm скачать через торрент бесплатно
  • Флеминг / Fleming (2013) BDRip 720p от MediaClub | LostFilm скачать через торрент бесплатно
  • Флеминг / Fleming (2014) BDRip-AVC | LostFilm скачать торрент бесплатно


    • Комментарии (0):

      Информация

      Информация

        Посетители, находящиеся в группе Гости, не могут оставлять комментарии в данной новости.

        ↓ Меню



        ↓ Опрос

        А Вы добавили сайт в закладки?
        Да
        Не


        Top 10 за неделю (Фильмы)