.
Авторизация | Регистрация
» » Тайна Рагнарока / Gten Ragnarok (2013) BDRip 720p от GORESEWAGE | L1 скачать через торрент бесплатно




    Тайна Рагнарока / Gten Ragnarok (2013) BDRip 720p от GORESEWAGE | L1 скачать через торрент бесплатно

    Опубликовал: Админ | Дата: 27-02-2015, 11:10 | Просмотров: 168



    Русское название: Тайна Рагнарока
    Русское название в мировом прокате: G?ten Ragnarok
    Создали в: 2013
    Снималось в: Норвегия
    Категория жанра: фэнтези, боевик, приключения
    Время просмотра: 01:41:08
    Перевод текста: Любительский (одноголосый закадровый) datynet
    Оригинальная аудиодорожка: Norwegian
    Субтитры: Russian (Full Mannenr), Norwegian (Foreign parts only, Full, SDH)
    Киностудия: Fantefilm, Film i V?st, Ghost VFX

    Главный режиссёр: Миккель Бренне Саннемусе / Mikkel Braenne Sandemose

    Актеры: Пол Сверре Валхейм Хаген, Николай Клеве Брош, Бьорн Сундквист, София Хелин, Мария Аннетт Тандерод Берглид, Джулиан Подольски, Йенс Хультен, Терье Стрёмдаль, Вера Руди и др.

    Сюжет: Археолог Сигерд Свендсен уже много лет одержим историей судна викингов Осберг. Единственная надпись, найденная на этом корабле написана на языке рун и гласит: человек знает мало. Сигерд уверен, что судно Осберг скрывает ответ на тайну о Рагнароке - конце дней в норвежской мифологии. Когда его друг Аллан находит подобные руны на камне с севера Норвегии, Сигерд убеждается, что руны - это карта сокровищ. Вместе они отправляются в экспедицию, которая заводит их в нейтральную зону между Норвегией и Россией, которая не населена уже многие десятилетия. Здесь Сигерд находит истинное значение рун, которые хранят ужасающую тайну.



    Sample

    Качество фильма: BDRip 720p
    Контейнер: MKV
    Информация о видео кодек: MPEG-4 AVC Video
    Информация о звуке кодек: DTS / AC3
    Информация о видео: MPEG-4 AVC Video / 4548 kbps / 1280x534p / 24.000 fps / 2.40:1 / High Profile 4.1
    Информация о звуке 1: Russian / AC3 / 2.0 / 48 kHz / 192 kbps / 16-bit / VO datynet
    Информация о звуке 2: Norwegian / DTS / 5.1 / 48 kHz / 1536 kbps / 24-bit / Original
    Навигация по главам: да

    Дополнительная информация

    * За дорогу № 1 thx datynet.
    * За русские сабы thx Mannenr.

    Скриншоты для ознакомления

    MediaInfo
    C:/GORESEWAGE/G?ten Ragnarok 2013 BDRip 720p GORESEWAGE.mkv
    General
    Unique ID : 188955295006152960775681803142098656674 (0x8E27775109A7A845984D45BDCB451DA2)
    Complete name : C:/GORESEWAGE/G?ten Ragnarok 2013 BDRip 720p GORESEWAGE.mkv
    Format : Matroska
    Format version : Version 4 / Version 2
    File size : 4.50 GiB
    Duration : 1h 41mn
    Overall bit rate : 6 376 Kbps
    Movie name : G?ten Ragnarok 2013 BDRip 720p GORESEWAGE
    Encoded date : UTC 2014-02-26 16:24:54
    Writing application : mkvmerge v6.1.0 (;Old Devil;) built on Mar 2 2013 14:32:37
    Writing library : libebml v1.3.0 libmatroska v1.4.0
    Attachment : Yes
    Video #1
    ID : 1
    Format : AVC
    Format/Info : Advanced Video Codec
    Format profile : High@L4.1
    Format settings, CABAC : Yes
    Format settings, ReFrames : 12 frames
    Codec ID : V_MPEG4/ISO/AVC
    Duration : 1h 41mn
    Bit rate : 4 548 Kbps
    Width : 1 280 pixels
    Height : 534 pixels
    Display aspect ratio : 2.40:1
    Frame rate mode : Constant
    Frame rate : 24.000 fps
    Color space : YUV
    Chroma subsampling : 4:2:0
    Bit depth : 8 bits
    Scan type : Progressive
    Bits/(Pixel*Frame) : 0.277
    Stream size : 3.21 GiB (71%)
    Title : G?ten Ragnarok 2013 BDRip 720p GORESEWAGE
    Language : Norwegian
    Default : Yes
    Forced : No
    Audio #2
    ID : 2
    Format : AC-3
    Format/Info : Audio Coding 3
    Mode extension : CM (complete main)
    Format settings, Endianness : Big
    Codec ID : A_AC3
    Duration : 1h 41mn
    Bit rate mode : Constant
    Bit rate : 192 Kbps
    Channel count : 2 channels
    Channel positions : Front: L R
    Sampling rate : 48.0 KHz
    Bit depth : 16 bits
    Compression mode : Lossy
    Stream size : 139 MiB (3%)
    Title : VO datynet
    Language : Russian
    Default : Yes
    Forced : No
    Audio #3
    ID : 3
    Format : DTS
    Format/Info : Digital Theater Systems
    Mode : 16
    Format settings, Endianness : Big
    Codec ID : A_DTS
    Duration : 1h 41mn
    Bit rate mode : Constant
    Bit rate : 1 509 Kbps
    Channel count : 6 channels
    Channel positions : Front: L C R, Side: L R, LFE
    Sampling rate : 48.0 KHz
    Bit depth : 24 bits
    Compression mode : Lossy
    Stream size : 1.07 GiB (24%)
    Title : Original
    Language : Norwegian
    Default : No
    Forced : No
    Text #4
    ID : 4
    Format : UTF-8
    Codec ID : S_TEXT/UTF8
    Codec ID/Info : UTF-8 Plain Text
    Title : Full Mannenr
    Language : Russian
    Default : No
    Forced : No
    Text #5
    ID : 5
    Format : PGS
    Muxing mode : zlib
    Codec ID : S_HDMV/PGS
    Codec ID/Info : The same subtitle format used on BDs/HD-DVDs
    Title : Foreign parts only
    Language : Norwegian
    Default : No
    Forced : No
    Text #6
    ID : 6
    Format : PGS
    Muxing mode : zlib
    Codec ID : S_HDMV/PGS
    Codec ID/Info : The same subtitle format used on BDs/HD-DVDs
    Title : Full
    Language : Norwegian
    Default : No
    Forced : No
    Text #7
    ID : 7
    Format : PGS
    Muxing mode : zlib
    Codec ID : S_HDMV/PGS
    Codec ID/Info : The same subtitle format used on BDs/HD-DVDs
    Title : SDH
    Language : Norwegian
    Default : No
    Forced : No
    Menu
    00:00:00.000 : en:00:00:00.000
    00:07:07.667 : en:00:07:07.667
    00:16:23.167 : en:00:16:23.167
    00:24:55.000 : en:00:24:55.000
    00:33:32.542 : en:00:33:32.542
    00:40:07.417 : en:00:40:07.417
    00:52:19.250 : en:00:52:19.250
    00:58:54.667 : en:00:58:54.667
    01:07:07.000 : en:01:07:07.000
    01:15:54.292 : en:01:15:54.292
    01:26:06.375 : en:01:26:06.375
    01:36:25.458 : en:01:36:25.458

    Размер скачиваемого торрента: 4.50 GB (4835985317 Bytes)

    Тайна Рагнарока / Gten Ragnarok (2013) BDRip 720p от GORESEWAGE | L1 скачать через торрент бесплатно
    загрузка...
    Рейтинг →
     (голосов: 1, оценка 5/5, голосовать можно 1 раз )

    Другие торренты по теме:

  • Тайна Рагнарока / Ragnarok (2013) BDRip 720p от CINEMANIA | L2 скачать через торрент бесплатно
  • Тайна Рагнарока / Ragnarok (2013) BDRip 1080p от CINEMANIA | L2 скачать через торрент бесплатно
  • Тайна Рагнарока / Gten Ragnarok (2013) BDRip 1080p от GORESEWAGE | L1 скачать через торрент бесплатно
  • Тайна Рагнарока / Gten Ragnarok (2013) HDRip | L1 скачать через торрент бесплатно
  • Тайна Рагнарока / Ragnarok (2013) HDRip-AVC от ExKinoRay | L2 торрент скачать бесплатно
  • Тайна Рагнарока / Ragnarok (2013) BDRip | L2 торрент скачать бесплатно
  • Тайна Рагнарока / Gten Ragnarok (2013) BDRemux 1080p от GORESEWAGE | L2, L1 торрент скачать бесплатно
  • Тайна Рагнарока / Gеten Ragnarok (2013) BDRip 720p | L1 скачать через торрент бесплатно


    • Комментарии (0):

      Информация

      Информация

        Посетители, находящиеся в группе Гости, не могут оставлять комментарии в данной новости.

        ↓ Меню



        ↓ Опрос

        А Вы добавили сайт в закладки?
        Да
        Не


        Top 10 за неделю (Фильмы)