.
Авторизация | Регистрация
» » Последний рубеж / Homefront (2013) BDRip 1080p | Чистый звук скачать через торрент бесплатно




    Последний рубеж / Homefront (2013) BDRip 1080p | Чистый звук скачать через торрент бесплатно

    Опубликовал: Админ | Дата: 27-02-2015, 11:10 | Просмотров: 215



    Детально о кино
    Русское название: Последний рубеж
    Русское название в мировом прокате: Homefront
    Создали в: 2013
    Категория жанра: Боевик, криминал
    Снималось в: США, Homefront Productions, Millennium Films, Nu-Image Films
    Главный режиссер: Гэри Фледер
    Актеры: Джейсон Стэйтем, Джеймс Франко, Вайнона Райдер, Кейт Босворт, Рашель Лефевр, Фрэнк Грилло, Клэнси Браун, Изабела Видович, Криста Кэмпбелл, Стеффи Гроут

    Сюжет фильма: Фил Брокер — бывший агент из отдела борьбы с наркотиками. Фил переезжает в небольшой город вместе с семьей в надежде забыть прошлое. Но он узнает, что город только со стороны кажется тихим и спокойным местом, на самом деле он кишит насилием, наркотиками, а всем этим заправляет злодей по кличке Аллигатор…



    Файл
    Качество фильма: BDRip (1080p)
    Информация о видео: MPEG-4 AVC, 12 Мбит/с, 1920x800
    Информация о звуке: Русский (AC3, 2 ch, 192 Кбит/с), английский (DTS, 6 ch, 1510 Кбит/с)
    Размер скачиваемого торрента: 9.62 ГБ
    Время просмотра: 01:40:34
    Перевод текста: Дублированный чистый звук
    MI
    Общее
    Уникальный идентификатор : 226329690160281553072800206504352906464 (0xAA45834421B6A7CCABAF6EC9ABA97CE0)
    Полное имя : C:Homefront.2013.BluRay.1080p.DTS.CHD.mkv
    Формат : Matroska
    Версия формата : Version 2
    Размер файла : 9,62 Гбайт
    Продолжительность : 1 ч. 40 м.
    Общий поток : 13,7 Мбит/сек
    Название фильма : Homefront.2013.BluRay.1080p.DTS.x264-CHD
    Дата кодирования : UTC 2014-02-26 14:26:53
    Программа кодирования : mkvmerge v6.7.0 (;Back to the Ground;) 64bit built on Jan 8 2014 15:10:52
    Библиотека кодирования : libebml v1.3.0 libmatroska v1.4.1

    Видео
    Идентификатор : 2
    Формат : AVC
    Формат/Информация : Advanced Video Codec
    Профиль формата : High@L4.1
    Параметр CABAC формата : Да
    Параметр ReFrames формата : 4 кадра
    Идентификатор кодека : V_MPEG4/ISO/AVC
    Продолжительность : 1 ч. 40 м.
    Битрейт : 12,0 Мбит/сек
    Ширина : 1920 пикселей
    Высота : 800 пикселей
    Соотношение сторон : 2,40:1
    Режим частоты кадров : Постоянный
    Частота кадров : 23,976 кадра/сек
    Цветовое пространство : YUV
    Субдискретизация насыщенности : 4:2:0
    Битовая глубина : 8 бит
    Тип развёртки : Прогрессивная
    Бит/(Пиксели*Кадры) : 0.326
    Размер потока : 8,23 Гбайт (86%)
    Заголовок : hahay0yo@CHD
    Библиотека кодирования : x264 core 138 r2356 a1d3d17
    Настройки программы : cabac=1 / ref=4 / deblock=1:-3:-3 / analyse=0x3:0x113 / me=umh / subme=10 / psy=1 / psy_rd=1.00:0.05 / mixed_ref=1 / me_range=32 / chroma_me=1 / trellis=2 / 8x8dct=1 / cqm=0 / deadzone=21,11 / fast_pskip=0 / chroma_qp_offset=-2 / threads=18 / lookahead_threads=1 / sliced_threads=0 / nr=0 / decimate=1 / interlaced=0 / bluray_compat=0 / constrained_intra=0 / bframes=6 / b_pyramid=2 / b_adapt=2 / b_bias=0 / direct=3 / weightb=1 / open_gop=0 / weightp=2 / keyint=250 / keyint_min=23 / scenecut=40 / intra_refresh=0 / rc=2pass / mbtree=0 / bitrate=12013 / ratetol=1.0 / qcomp=0.70 / qpmin=0 / qpmax=69 / qpstep=4 / cplxblur=20.0 / qblur=0.5 / ip_ratio=1.40 / pb_ratio=1.30 / aq=2:0.90
    Язык : English
    Default : Да
    Forced : Нет

    Аудио #1
    Идентификатор : 1
    Формат : AC-3
    Формат/Информация : Audio Coding 3
    Расширение режима : CM (complete main)
    Параметр Endianness формата : Big
    Идентификатор кодека : A_AC3
    Продолжительность : 1 ч. 40 м.
    Вид битрейта : Постоянный
    Битрейт : 192 Кбит/сек
    Каналы : 2 канала
    Расположение каналов : Front: L R
    Частота : 48,0 КГц
    Битовая глубина : 16 бит
    Метод сжатия : С потерями
    Размер потока : 138 Мбайт (1%)
    Язык : Russian
    Default : Да
    Forced : Да

    Аудио #2
    Идентификатор : 3
    Формат : DTS
    Формат/Информация : Digital Theater Systems
    Режим : 16
    Параметр Endianness формата : Big
    Идентификатор кодека : A_DTS
    Продолжительность : 1 ч. 40 м.
    Вид битрейта : Постоянный
    Битрейт : 1509 Кбит/сек
    Каналы : 6 каналов
    Расположение каналов : Front: L C R, Side: L R, LFE
    Частота : 48,0 КГц
    Битовая глубина : 24 бит
    Метод сжатия : С потерями
    Размер потока : 1,06 Гбайт (11%)
    Заголовок : English DTS 5.1 1509Kbps
    Язык : English
    Default : Нет
    Forced : Нет

    Меню
    00:00:00.000 : en:00:00:00.000
    00:04:55.462 : en:00:04:55.462
    00:09:14.095 : en:00:09:14.095
    00:14:55.853 : en:00:14:55.853
    00:21:42.426 : en:00:21:42.426
    00:25:03.001 : en:00:25:03.001
    00:31:23.215 : en:00:31:23.215
    00:34:04.000 : en:00:34:04.000
    00:39:01.089 : en:00:39:01.089
    00:45:47.995 : en:00:45:47.995
    00:49:29.258 : en:00:49:29.258
    00:55:16.480 : en:00:55:16.480
    01:01:55.420 : en:01:01:55.420
    01:08:56.174 : en:01:08:56.174
    01:12:27.635 : en:01:12:27.635
    01:16:00.973 : en:01:16:00.973
    01:19:15.250 : en:01:19:15.250
    01:24:02.621 : en:01:24:02.621
    01:29:39.124 : en:01:29:39.124
    01:35:16.961 : en:01:35:16.961

    Скриншоты для ознакомления



    Размер скачиваемого торрента: 9.62 GB (10330595247 Bytes)

    Последний рубеж / Homefront (2013) BDRip 1080p | Чистый звук скачать через торрент бесплатно
    загрузка...
    Рейтинг →
     (голосов: 1, оценка 3/5, голосовать можно 1 раз )

    Другие торренты по теме:

  • Звездный путь 5: Последний рубеж / Star Trek V: The Final Frontier (1989) BDRip от HQCLUB торрент скачать бесплатно
  • Сергей Михеенков - Серпухов. Последний рубеж. 49-я армия в битве за Москву. 1941 (2011) PDF торрент скачать бесплатно
  • Тайны мира с Анной Чапман. Разоблачение. Последний рубеж (2013) SATRip торрент скачать бесплатно
  • Последний рубеж: Защитники Галактики / Ginga Kikoutai Majestic Prince HDTV 720p | L2 торрент скачать бесплатно
  • Последний рубеж: Защитники Галактики / Ginga Kikoutai Majestic Prince HDTV 720p | L2 торрент скачать бесплатно
  • Последний рубеж (2013) скачать через торрент бесплатно
  • Последний рубеж / Homefront (2013) CAMRip скачать через торрент бесплатно
  • Последний рубеж / Homefront (2013) TS скачать через торрент бесплатно


    • Комментарии (0):

      Информация

      Информация

        Посетители, находящиеся в группе Гости, не могут оставлять комментарии в данной новости.

        ↓ Меню



        ↓ Опрос

        А Вы добавили сайт в закладки?
        Да
        Не


        Top 10 за неделю (Фильмы)